<?xml version="1.0" standalone="no"?>
<!DOCTYPE svg PUBLIC "-//W3C//DTD SVG 1.1//EN" "http://www.w3.org/Graphics/SVG/1.1/DTD/svg11.dtd">
<svg xmlns="http://www.w3.org/2000/svg">
<metadata>Copyright (C) 2021 by original authors @ fontello.com</metadata>
<defs>
<font id="jws-icon" horiz-adv-x="1000" >
<font-face font-family="jws-icon" font-weight="400" font-stretch="normal" units-per-em="1000" ascent="850" descent="-150" />
<missing-glyph horiz-adv-x="1000" />
<glyph glyph-name="chevron-right" unicode="&#xe800;" d="M250-150c-6 0-13 2-18 7-9 10-9 26 0 36l433 432-433 432c-9 10-9 26 0 36s26 9 36 0l450-450c9-10 9-26 0-36l-450-450c-5-5-12-7-18-7z" horiz-adv-x="1000" />

<glyph glyph-name="chevron-left" unicode="&#xe801;" d="M700-150c6 0 13 2 18 7 9 10 9 26 0 36l-433 432 433 432c9 10 9 26 0 36s-26 9-36 0l-450-450c-9-10-9-26 0-36l450-450c5-5 12-7 18-7z" horiz-adv-x="1000" />

<glyph glyph-name="arrow-up" unicode="&#xe802;" d="M457 818l-300-300c-9-10-9-26 0-36s26-9 36 0l257 258v-815c0-14 11-25 25-25s25 11 25 25v815l257-258c10-9 26-9 36 0 5 5 7 12 7 18s-2 13-7 18l-300 300c-10 10-26 10-36 0z" horiz-adv-x="1000" />

<glyph glyph-name="arrow-left2" unicode="&#xe803;" d="M393-7l-312 313c-25 24-25 64 0 88l312 313c25 24 64 24 89 0s24-64 0-89l-206-205h599c35 0 63-28 63-63s-28-62-63-62h-599l206-206c12-12 18-28 18-44s-6-32-18-45c-25-24-64-24-89 0z" horiz-adv-x="1000" />

<glyph glyph-name="arrow-right2" unicode="&#xe804;" d="M607-7l312 313c25 24 25 64 0 88l-312 313c-25 24-64 24-89 0s-24-64 0-89l206-205h-599c-34 0-62-28-62-63s28-62 62-62h599l-206-206c-12-12-18-28-18-44s6-32 18-45c25-24 64-24 89 0z" horiz-adv-x="1000" />

<glyph glyph-name="search32" unicode="&#xe805;" d="M976-118l-280 292c71 72 116 170 116 280 0 218-178 396-397 396s-396-178-396-396 177-397 396-397c96 0 184 34 253 91l281-292c4-4 9-6 14-6 4 0 9 2 13 5 7 7 7 19 0 27z m-561 213c-198 0-359 161-359 359s161 358 359 358 359-161 359-358-161-359-359-359z" horiz-adv-x="1000" />

<glyph glyph-name="user22" unicode="&#xe806;" d="M972-36c-6 5-120 79-290 116 63 79 103 185 120 255 23 98 14 289-80 409-55 69-132 106-222 106s-167-37-222-106c-94-120-103-311-79-409 17-70 56-176 119-255-170-37-284-111-290-116-23-15-33-43-25-70 8-26 32-44 60-44h875c27 0 51 18 59 44 8 27-2 55-25 70z m-339 155l-10-13c-74-86-172-86-246 0l-10 13c-87 110-130 256-112 395 17 134 94 274 245 274s228-140 245-274c19-139-25-285-112-395z m-570-207c4 3 110 73 268 107l77 17c28-18 59-30 92-30 34 0 64 12 92 30l77-17c157-34 263-103 269-107h-875z" horiz-adv-x="1000" />

<glyph glyph-name="tag2" unicode="&#xe807;" d="M981 416l-156 250c-23 37-63 59-106 59h-594c-69 0-125-56-125-125v-500c0-69 56-125 125-125h594c43 0 83 22 106 59l156 250c25 40 25 92 0 132z m-53-99l-156-250c-12-19-32-30-53-30h-594c-34 0-62 29-62 63v500c0 34 28 62 62 62h594c21 0 41-11 53-29l156-250c13-20 13-46 0-66z m-209 127c-52 0-94-42-94-94s42-94 94-94c52 0 94 42 94 94 0 52-42 94-94 94z m0-157c-35 0-63 28-63 63s28 62 63 62c34 0 62-28 62-62s-28-63-62-63z" horiz-adv-x="1000" />

<glyph glyph-name="bubble32" unicode="&#xe808;" d="M500 631c9 0 16-7 16-15s-7-16-16-16c-166 0-312-88-312-187 0-9-7-16-16-16s-16 7-16 16c0 118 158 218 344 218z m0 157c-276 0-500-168-500-375 0-129 87-243 219-311 0 0 0-1 0-2 0-56-42-116-60-148 0 0 0 0 0 0-2-3-3-7-3-11 0-16 13-29 29-29 3 0 8 1 8 1 97 16 189 106 211 132 31-5 63-7 96-7 276 0 500 167 500 375s-224 375-500 375z m0-688c-29 0-58 2-87 7-3 0-6 0-9 0-19 0-37-8-49-23-13-16-51-52-96-79 12 28 22 59 22 92 0 2 1 4 1 5 0 24-14 45-35 56-115 59-184 154-184 255 0 172 196 312 437 312 241 0 438-140 438-312s-197-313-438-313z" horiz-adv-x="1000" />

<glyph glyph-name="clock" unicode="&#xe809;" d="M643 118l-205 206v276h125v-224l169-169z m-143 732c-276 0-500-224-500-500s224-500 500-500 500 224 500 500-224 500-500 500z m0-875c-207 0-375 168-375 375s168 375 375 375c207 0 375-168 375-375s-168-375-375-375z" horiz-adv-x="1000" />

<glyph glyph-name="chevron-right-circle" unicode="&#xe80a;" d="M811 661c-90 90-209 139-336 139s-246-49-336-139-139-209-139-336 49-246 139-336 209-139 336-139 246 49 336 139 139 209 139 336-49 246-139 336z m-336-761c-234 0-425 191-425 425s191 425 425 425c234 0 425-191 425-425s-191-425-425-425z m-75 150c-6 0-13 2-18 7-9 10-9 26 0 36l233 232-233 232c-9 10-9 26 0 36s26 9 36 0l250-250c9-10 9-26 0-36l-250-250c-5-5-12-7-18-7z" horiz-adv-x="1000" />

<glyph glyph-name="arrow-right" unicode="&#xe80b;" d="M968 343l-300 300c-10 9-26 9-36 0s-9-26 0-36l258-257h-815c-14 0-25-11-25-25s11-25 25-25h815l-258-257c-9-10-9-26 0-36 5-4 12-7 18-7s13 3 18 7l300 300c10 10 10 26 0 36z" horiz-adv-x="1000" />

<glyph glyph-name="arrow-left" unicode="&#xe80c;" d="M32 343l300 300c10 9 26 9 36 0s9-26 0-36l-258-257h815c14 0 25-11 25-25s-11-25-25-25h-815l258-257c9-10 9-26 0-36-5-4-12-7-18-7s-13 3-18 7l-300 300c-9 10-9 26 0 36z" horiz-adv-x="1000" />

<glyph glyph-name="map-marker" unicode="&#xe80d;" d="M500 817c165 0 300-135 300-300 0-53-14-105-40-150l-260-450-260 450c-26 45-40 97-40 150 0 165 135 300 300 300z m0-417c64 0 117 52 117 117s-53 116-117 116c-64 0-117-52-117-116s53-117 117-117z m0 450c-184 0-333-149-333-333 0-61 16-118 45-167l288-500 288 500c29 49 45 106 45 167 0 184-149 333-333 333v0z m0-417c-46 0-83 38-83 84 0 46 37 83 83 83s83-37 83-83c0-46-37-84-83-84v0z" horiz-adv-x="1000" />

<glyph glyph-name="users" unicode="&#xe80e;" d="M925-50h-550c-41 0-75 34-75 75 0 2 1 60 46 116 27 32 62 58 107 76 53 22 120 33 197 33s144-11 197-33c45-18 81-44 107-76 46-56 46-114 46-116 0-41-34-75-75-75z m-575 75c0-14 11-25 25-25h550c14 0 25 11 25 25 0 2-2 45-37 87-49 57-140 88-263 88s-214-31-263-88c-35-42-37-85-37-87z m300 275c-110 0-200 90-200 200s90 200 200 200 200-90 200-200c0-110-90-200-200-200z m0 350c-83 0-150-67-150-150s67-150 150-150 150 67 150 150-67 150-150 150z m-425-700h-150c-41 0-75 34-75 75 0 2 0 46 33 90 19 25 45 45 77 59 38 17 85 26 140 26 9 0 18 0 26-1 14 0 25-12 24-26s-12-24-26-24c-8 1-16 1-24 1-195 0-200-119-200-125 0-14 11-25 25-25h150c14 0 25-11 25-25s-11-25-25-25z m25 300c-83 0-150 67-150 150s67 150 150 150 150-67 150-150-67-150-150-150z m0 250c-55 0-100-45-100-100s45-100 100-100 100 45 100 100c0 55-45 100-100 100z" horiz-adv-x="1000" />

<glyph glyph-name="briefcase" unicode="&#xe80f;" d="M925 600h-225v75c0 41-34 75-75 75h-250c-41 0-75-34-75-75v-75h-225c-41 0-75-34-75-75v-550c0-41 34-75 75-75h850c41 0 75 34 75 75v550c0 41-34 75-75 75z m-575 75c0 14 11 25 25 25h250c14 0 25-11 25-25v-75h-300v75z m-275-125h850c14 0 25-11 25-25v-375h-100v25c0 14-11 25-25 25h-100c-14 0-25-11-25-25v-25h-400v25c0 14-11 25-25 25h-100c-14 0-25-11-25-25v-25h-100v375c0 14 11 25 25 25z m725-400v-50h-50v50h50z m-550 0v-50h-50v50h50z m675-200h-850c-14 0-25 11-25 25v125h100v-25c0-14 11-25 25-25h100c14 0 25 11 25 25v25h400v-25c0-14 11-25 25-25h100c14 0 25 11 25 25v25h100v-125c0-14-11-25-25-25z" horiz-adv-x="1000" />

<glyph glyph-name="clock-1" unicode="&#xe810;" d="M816-6c86 90 134 207 134 331 0 119-43 230-122 318l35 34 32-32c5-5 11-7 18-7s12 2 17 7c10 10 10 26 0 35l-100 100c-10 10-25 10-35 0s-10-25 0-35l32-32-34-35c-88 79-199 122-318 122s-230-43-318-122l-34 35 32 32c10 10 10 26 0 35s-25 10-35 0l-100-100c-10-9-10-25 0-35 5-5 11-7 18-7s12 2 17 7l33 32 34-34c-79-88-122-199-122-318 0-124 48-241 134-331l-102-101c-9-10-9-26 0-36 5-5 12-7 18-7s13 2 18 7l103 103c85-71 192-110 304-110s219 39 304 110l103-103c5-5 12-7 18-7s13 2 18 7c9 10 9 26 0 36l-102 101z m-766 331c0 234 191 425 425 425s425-191 425-425c0-234-191-425-425-425s-425 191-425 425z m706 163c-6 11-22 16-34 9l-246-142-191 134c-12 8-27 5-35-6s-5-27 6-35l205-143c0-1 0-1 0-1 0 0 1 0 1 0 0 0 0-1 1-1 0 0 0 0 1 0 0 0 0 0 0-1 1 0 1 0 2 0 0 0 0 0 1-1 0 0 0 0 0 0 1 0 1 0 1 0 1 0 1 0 1 0 0 0 1 0 1-1 0 0 0 0 1 0 0 0 0 0 1 0 0 0 0 0 0 0 1 0 1 0 1 0 1 0 1 0 2 0 0 0 0 0 0 0 0 0 0 0 0 0s0 0 0 0c1 0 2 0 3 0 0 0 0 0 0 0 1 0 2 0 3 1 0 0 0 0 0 0 1 0 2 0 2 0 1 0 1 1 1 1 1 0 1 0 2 1 0 0 1 0 1 0 0 0 0 0 1 0l259 150c12 7 16 22 9 34z" horiz-adv-x="1000" />

<glyph glyph-name="diploma2" unicode="&#xe811;" d="M917 483c-10 0-17-6-17-16v-17c0-10 7-17 17-17s16 7 16 17v17c0 10-6 16-16 16z m0 135c-10 0-17-6-17-16v-39c0-10 7-16 17-16s16 8 16 16v39c0 10-6 16-16 16z m-17 82c0-10 7-17 17-17s16 7 16 17v33h-33c-10 0-17-6-17-16s7-17 17-17z m-595 0h33c9 0 17 7 17 17s-7 16-17 16h-33c-10 0-17-6-17-16s7-17 17-17z m118 0h34c10 0 16 7 16 17s-6 16-16 16h-34c-10 0-16-6-16-16s6-17 16-17z m-238 0h33c10 0 17 7 17 17s-7 16-17 16h-33c-10 0-17-6-17-16s7-17 17-17z m477 0h33c10 0 17 7 17 17s-7 16-17 16h-33c-10 0-17-6-17-16s7-17 17-17z m-119 0h34c8 0 16 7 16 17s-6 16-16 16h-34c-10 0-16-6-16-16s6-17 16-17z m239 0h33c8 0 17 7 17 17s-7 16-17 16h-33c-10 0-17-6-17-16s7-17 17-17z m-699-17c10 0 17 7 17 17 10 0 17 7 17 17s-7 16-17 16h-33v-33c0-10 6-17 16-17z m0-360c10 0 17 7 17 17v35c0 10-7 17-17 17s-16-7-16-17v-35c0-10 6-17 16-17z m0 120c10 0 17 7 17 17v35c0 10-7 17-17 17s-16-7-16-17v-35c0-10 6-17 16-17z m0 120c10 0 17 7 17 17v35c0 10-7 17-17 17s-16-7-16-17v-35c0-10 6-17 16-17z m0-361c10 0 17 8 17 16v35c0 10-7 17-17 17s-16-7-16-17v-35c0-10 6-16 16-16z m34-85c0 10-7 16-17 16 0 10-7 17-17 17s-16-7-16-17v-33h33c10 0 17 7 17 17z m216 16h-33c-10 0-17-6-17-16s7-17 17-17h33c10 0 17 7 17 17s-7 16-17 16z m-150-33h34c10 0 16 7 16 17s-6 16-16 16h-34c-10 0-16-6-16-16s6-17 16-17z m267 33h-33c-10 0-17-6-17-16s7-17 17-17h33c10 0 17 7 17 17s-7 16-17 16z m100 0h-17c-10 0-16-6-16-16s6-17 16-17h17c10 0 17 7 17 17s-7 16-17 16z m450 667h-1000v-767h633v-116c0-7 4-14 10-15 7-4 14-2 19 3l88 88 88-88c4-3 7-5 12-5 2 0 5 0 7 2 6 1 10 8 10 15v116h133v767z m-167-843l-71 71c-4 4-7 5-12 5s-8-1-12-5l-71-71v181c50-30 116-30 166 0v-181z m-55 196c-1 0-2 0-2 0-2-1-3-1-4-1s-2 0-3-1c-1 0-2 0-3 0-1 0-2 0-3 0-1 0-3 0-4-1s-2 0-3 0c-2 0-4 0-6 0s-4 0-6 0c-1 0-3 0-4 0-1 1-1 1-2 1-2 0-4 0-5 0 0 0-1 0-1 0-4 1-8 2-11 2-2 1-4 1-6 2-4 1-8 2-12 4s-7 3-11 4c-1 1-2 2-3 2-1 1-2 1-2 1 0 0 0 0-1 0-41 23-69 67-69 117 0 74 60 134 133 134s133-60 133-134c0-63-45-117-105-130z m189-86h-100v98c31 30 50 72 50 118 0 92-75 167-167 167s-167-75-167-167c0-46 20-88 50-118v-98h-600v700h934v-700z m-184 516h-566c-10 0-17-6-17-16s7-17 17-17h566c10 0 17 7 17 17s-7 16-17 16z m-200-100h-366c-10 0-17-6-17-16s7-17 17-17h366c10 0 17 7 17 17s-7 16-17 16z m-366-133h316c10 0 17 7 17 17s-7 16-17 16h-316c-10 0-17-6-17-16s7-17 17-17z m0-117h316c10 0 17 7 17 17s-7 17-17 17h-316c-10 0-17-7-17-17s7-17 17-17z" horiz-adv-x="1000" />

<glyph glyph-name="quotes-left" unicode="&#xe813;" d="M220 413c121 0 219-98 219-219s-98-219-219-219-219 98-219 219l-1 31c0 242 196 438 438 438v-125c-84 0-162-33-221-92-12-11-22-23-32-36 12 2 23 3 35 3z m562 0c121 0 219-98 219-219s-98-219-219-219-218 98-218 219l-1 31c0 242 195 438 437 438v-125c-83 0-162-33-221-92-11-11-22-23-31-36 11 2 23 3 34 3z" horiz-adv-x="1000" />

<glyph glyph-name="share" unicode="&#xe814;" d="M817 783c-74 0-134-59-134-133 0-13 2-25 6-37l-390-163c-23 40-66 67-116 67-73 0-133-60-133-134s60-133 133-133c39 0 74 17 98 43l251-181c-10-18-15-39-15-62 0-74 59-133 133-133s133 59 133 133c0 74-59 133-133 133-39 0-74-17-99-43l-250 180c10 19 16 40 16 63 0 13-2 25-5 36l390 164c23-40 66-66 115-66 73 0 133 59 133 133 0 74-60 133-133 133z m-167-633c55 0 100-45 100-100s-45-100-100-100c-55 0-100 45-100 100s45 100 100 100z m-466 133c-56 0-100 45-100 100s44 100 100 100 99-45 99-100c0-55-44-100-99-100z m633 267c-56 0-100 45-100 100s44 100 100 100c55 0 100-45 100-100s-45-100-100-100z" horiz-adv-x="1000" />

<glyph glyph-name="link" unicode="&#xe815;" d="M534 200c-47 0-94 18-130 54-10 10-10 26 0 35s26 10 35 0c53-52 138-52 190 0l182 182c52 52 52 138 0 190s-138 52-190 0l-153-154c-10-9-26-9-36 0s-9 26 0 36l154 153c72 72 188 72 260 0s72-188 0-260l-182-182c-36-36-83-54-130-54z m-300-300c-47 0-94 18-130 54-72 72-72 189 0 260l182 182c72 72 188 72 260 0 10-10 10-25 0-35s-26-10-35 0c-53 52-138 52-190 0l-182-182c-52-52-52-137 0-190s138-52 190 0l153 154c10 10 26 10 36 0s9-26 0-36l-154-153c-36-36-83-54-130-54z" horiz-adv-x="1000" />

<glyph glyph-name="cross" unicode="&#xe816;" d="M535 325l283 282c9 10 9 26 0 36s-26 9-36 0l-282-283-282 283c-10 9-26 9-36 0s-9-26 0-36l283-282-283-282c-9-10-9-26 0-36 5-5 12-7 18-7s13 3 18 7l282 283 282-283c5-5 12-7 18-7s13 3 18 7c10 10 10 26 0 36l-283 282z" horiz-adv-x="1000" />

<glyph glyph-name="frame-expand" unicode="&#xe817;" d="M925 500c-14 0-25 11-25 25v100c0 14-11 25-25 25h-100c-14 0-25 11-25 25s11 25 25 25h100c41 0 75-34 75-75v-100c0-14-11-25-25-25z m-900 0c-14 0-25 11-25 25v100c0 41 34 75 75 75h100c14 0 25-11 25-25s-11-25-25-25h-100c-14 0-25-11-25-25v-100c0-14-11-25-25-25z m150-550h-100c-41 0-75 34-75 75v100c0 14 11 25 25 25s25-11 25-25v-100c0-14 11-25 25-25h100c14 0 25-11 25-25s-11-25-25-25z m700 0h-100c-14 0-25 11-25 25s11 25 25 25h100c14 0 25 11 25 25v100c0 14 11 25 25 25s25-11 25-25v-100c0-41-34-75-75-75z" horiz-adv-x="1000" />

<glyph glyph-name="heart" unicode="&#xe818;" d="M475-100c-4 0-8 1-12 3-5 3-116 65-230 168-67 60-120 122-159 184-49 78-74 156-74 233 0 144 118 262 263 262 49 0 101-18 146-52 27-19 49-43 66-68 17 25 39 49 66 68 45 34 98 52 147 52 144 0 262-118 262-262 0-77-25-155-74-233-39-62-92-124-159-184-113-103-225-165-230-168-4-2-8-3-12-3z m-212 800c-118 0-213-95-213-212 0-152 118-291 216-380 88-79 177-135 209-154 32 19 121 75 209 154 99 89 216 228 216 380 0 117-95 212-212 212-86 0-168-70-189-133-4-10-13-17-24-17s-20 7-24 17c-21 63-103 133-188 133z" horiz-adv-x="1000" />

<glyph glyph-name="eye" unicode="&#xe819;" d="M994 342c-3 2-59 65-148 128-52 38-105 68-157 89-65 27-129 41-189 41s-124-14-189-41c-52-21-104-51-157-89-88-63-145-126-148-128-8-10-8-24 0-34 3-2 60-65 148-128 53-38 105-67 157-89 65-27 129-41 189-41s124 14 189 41c52 22 105 51 157 89 89 63 145 126 148 128 8 10 8 24 0 34z m-365 186c45-38 71-94 71-153 0-110-90-200-200-200s-200 90-200 200c0 59 26 115 71 153 41 14 85 22 129 22s88-8 129-22z m187-308c-77-55-194-120-316-120s-239 65-316 120c-58 41-102 83-124 105 22 22 66 64 124 105 27 19 58 39 93 58-18-35-27-73-27-113 0-138 112-250 250-250s250 112 250 250c0 40-9 78-27 113 35-19 66-39 93-58 58-41 102-83 124-105-22-22-66-64-124-105z" horiz-adv-x="1000" />

<glyph glyph-name="move" unicode="&#xe81a;" d="M918 343l-150 150c-10 9-26 9-36 0s-9-26 0-36l108-107h-340v340l107-108c5-4 12-7 18-7s13 3 18 7c9 10 9 26 0 36l-150 150c-10 10-26 10-36 0l-150-150c-9-10-9-26 0-36s26-9 36 0l107 108v-340h-340l108 107c9 10 9 26 0 36s-26 9-36 0l-150-150c-9-10-9-26 0-36l150-150c5-5 12-7 18-7s13 3 18 7c9 10 9 26 0 36l-108 107h340v-340l-107 108c-10 9-26 9-36 0s-9-26 0-36l150-150c5-5 12-7 18-7s13 2 18 7l150 150c10 10 10 26 0 36s-26 9-36 0l-107-108v340h340l-107-107c-10-10-10-26 0-36 4-5 11-7 17-7s13 3 18 7l150 150c10 10 10 26 0 36z" horiz-adv-x="1000" />

<glyph glyph-name="gift" unicode="&#xe81b;" d="M925 600h-150c16 21 25 47 25 75 0 69-56 125-125 125-69 0-128-55-156-88-18-20-32-41-44-62-11 21-26 42-44 62-28 33-86 88-156 88-69 0-125-56-125-125 0-28 9-54 25-75h-150c-14 0-25-11-25-25v-150c0-14 11-25 25-25h25v-475c0-41 34-75 75-75h700c41 0 75 34 75 75v475h25c14 0 25 11 25 25v150c0 14-11 25-25 25z m-369 79c40 45 83 71 119 71 41 0 75-34 75-75s-34-75-75-75h-169c9 22 26 52 50 79z m-6-779h-150v650h150v-650z m-350 775c0 41 34 75 75 75 36 0 80-26 119-71 24-27 41-57 50-79h-169c-41 0-75 34-75 75z m-150-125h300v-100h-300v100z m50-625v475h250v-500h-225c-14 0-25 11-25 25z m750 0c0-14-11-25-25-25h-225v500h250v-475z m50 525h-300v100h300v-100z" horiz-adv-x="1000" />

<glyph glyph-name="email" unicode="&#xe81c;" d="M0 732v-764h1000v764h-1000z m500-459l-406 401h813l-407-401z m-161 76l-280-275v552l280-277z m41-41l120-118 117 116 282-279h-804l285 281z m279 39l282 278v-557l-282 279z" horiz-adv-x="1000" />

<glyph glyph-name="clock-2" unicode="&#xe81d;" d="M433 850c-239 0-433-194-433-433s194-433 433-433 433 194 433 433-194 433-433 433z m0-812c-209 0-379 170-379 379s170 379 379 379 379-170 379-379-170-379-379-379z m27 650h-54v-282l170-170 38 38-154 154z" horiz-adv-x="1000" />

<glyph glyph-name="folder" unicode="&#xe81e;" d="M812 38h-758c-30 0-54 25-54 54v650c0 30 24 54 54 54h244c7 0 14-3 19-8l100-100h395c30 0 54-25 54-54v-542c0-29-24-54-54-54z m-758 704v-650h758v542h-406c-7 0-14 2-19 8l-101 100c0 0-232 0-232 0z" horiz-adv-x="1000" />

<glyph glyph-name="expand" unicode="&#xe81f;" d="M250 788v62h-219c-17 0-31-14-31-31v-219h63v143l290-290 44 44-290 291h143z m719 62h-219v-62h143l-290-291 44-44 291 290v-143h62v219c0 17-14 31-31 31z m-31-893l-291 290-44-44 290-291h-143v-62h219c17 0 31 14 31 31v219h-62v-143z m-585 290l-290-290v143h-63v-219c0-17 14-31 31-31h219v62h-143l290 291-44 44z" horiz-adv-x="1000" />

<glyph glyph-name="heart-1" unicode="&#xe820;" d="M500-40c-14 0-28 5-39 15-40 35-79 68-113 98l0 0c-101 86-188 160-249 233-67 82-99 159-99 244 0 82 28 157 79 213 52 56 123 87 200 87 58 0 111-18 158-54 23-18 44-41 63-67 19 26 40 49 64 67 46 36 99 54 157 54 77 0 148-31 200-87 51-56 79-131 79-213 0-85-31-162-99-244-61-73-148-147-248-233-35-29-74-63-114-98-11-10-25-15-39-15z m-221 831c-60 0-116-24-157-68-41-44-63-106-63-173 0-72 26-135 85-207 58-69 143-141 241-226l1 0c34-29 73-62 114-98 41 36 80 69 115 98 98 85 183 157 241 226 59 72 85 135 85 207 0 67-22 129-63 173-41 44-97 68-157 68-45 0-86-14-122-42-32-24-54-56-67-78-7-11-19-18-32-18s-25 7-32 18c-13 22-35 54-67 78-36 28-77 42-122 42z m0 0" horiz-adv-x="1000" />

<glyph glyph-name="download" unicode="&#xe821;" d="M500 142c-17 0-31 14-31 31v646c0 17 14 31 31 31s31-14 31-31v-646c0-17-14-31-31-31z m0 0m0 0c-8 0-16 3-22 9l-167 167c-12 12-12 32 0 44 13 12 32 12 45 0l144-145 145 145c12 12 32 12 44 0 12-12 12-32 0-44l-167-167c-6-6-14-9-22-9z m0 0m385-292h-770c-64 0-115 51-115 115v187c0 17 14 31 31 31s32-14 32-31v-187c0-29 23-53 52-53h770c29 0 53 24 53 53v187c0 17 14 31 31 31s31-14 31-31v-187c0-64-51-115-115-115z m0 0" horiz-adv-x="1000" />

<glyph glyph-name="lock" unicode="&#xe822;" d="M765 425v158c0 72-28 141-79 191-50 49-114 76-183 76-1 0-2 0-3 0-146 0-265-120-265-267v-158c-55-7-95-53-95-109v-356c0-60 48-110 108-110h504c60 0 109 50 109 110v356c-1 56-41 102-96 109z m-488 158h0c0 124 100 225 223 225h0c58 0 114-23 156-64 43-42 67-100 66-161v-158h-46v158c0 48-19 94-53 128-32 33-76 51-122 51h-1c-97 0-176-80-176-179v-158h-47v158z m357 0v-158h-268v158c0 75 60 136 134 136h2c34 0 67-14 91-38 26-26 41-61 41-98z m186-623l0 0c0-38-30-68-67-68h-504c-37 0-67 30-67 68v355c0 37 30 67 67 67h504c37 0 67-30 67-67v-355z m-247 190c-9 33-39 56-73 56-42 0-77-34-77-77 0-34 23-64 56-73v-60c0-11 9-21 21-21s21 10 21 21v60c41 12 64 54 52 94z m-73-55c-19 0-34 16-34 34 0 19 15 35 34 35 19 0 34-16 34-35 0-18-15-34-34-34z" horiz-adv-x="1000" />

<glyph glyph-name="double-arrow" unicode="&#xe823;" d="M992 370l-174 174c-10 11-29 11-40 0l-15-15c-11-11-11-30 0-41l99-99h-724l99 100c11 11 11 29 0 40l-15 15c-11 11-29 11-40 0l-174-173c-5-6-8-13-8-20 0-8 3-15 8-21l174-174c11-10 29-10 40 0l15 16c11 11 11 28 0 39l-101 100h729l-102-101c-5-5-8-12-8-19s3-15 8-20l15-15c6-5 13-8 20-8 8 0 15 3 20 8l174 174c5 5 8 12 8 20 0 8-3 15-8 20z" horiz-adv-x="1000" />

<glyph glyph-name="icon_quotations" unicode="&#xe824;" d="M250 440c0-53 41-96 92-96 16 0 31 5 45 13-5-51-31-126-125-202-13-10-16-30-5-44 6-8 15-12 24-12 6 0 13 2 18 7 116 93 145 189 149 253 6 82-18 125-41 148-2 2-4 4-7 6-5 5-10 8-14 11 0 0 0 0-1 0 0 0 0 0-1 0-6 4-10 5-10 5l0 0c-10 4-20 7-32 7-51 0-92-43-92-96z m303 0c0-53 41-96 92-96 16 0 31 5 45 13-5-51-31-126-125-202-13-10-16-30-5-44 6-8 15-12 24-12 6 0 13 2 18 7 116 93 145 189 149 253 6 82-19 125-41 148-2 2-4 4-7 6-5 5-10 8-14 11 0 0 0 0-1 0 0 0 0 0-1 0-6 4-10 5-10 5l0 0c-10 4-21 7-32 7-51 0-92-43-92-96z" horiz-adv-x="1000" />

<glyph glyph-name="chevron-down" unicode="&#xe825;" d="M0 550c0 6 3 13 7 18 10 10 26 10 36 0l432-433 432 433c10 9 26 9 36 0s9-26 0-36l-450-450c-10-9-26-9-36 0l-450 450c-5 5-7 12-7 18z" horiz-adv-x="1000" />

<glyph glyph-name="chevron-up" unicode="&#xe826;" d="M0 100c0-6 3-13 7-18 10-9 26-9 36 0l432 433 432-433c10-9 26-9 36 0s9 26 0 36l-450 450c-10 9-26 9-36 0l-450-450c-5-5-7-12-7-18z" horiz-adv-x="1000" />

<glyph glyph-name="menu" unicode="&#xe827;" d="M875 550h-750c-14 0-25 11-25 25s11 25 25 25h750c14 0 25-11 25-25s-11-25-25-25z m0-250h-750c-14 0-25 11-25 25s11 25 25 25h750c14 0 25-11 25-25s-11-25-25-25z m0-250h-750c-14 0-25 11-25 25s11 25 25 25h750c14 0 25-11 25-25s-11-25-25-25z" horiz-adv-x="1000" />

<glyph glyph-name="cross-1" unicode="&#xe828;" d="M535 325l283 282c9 10 9 26 0 36s-26 9-36 0l-282-283-282 283c-10 9-26 9-36 0s-9-26 0-36l283-282-283-282c-9-10-9-26 0-36 5-5 12-7 18-7s13 3 18 7l282 283 282-283c5-5 12-7 18-7s13 3 18 7c10 10 10 26 0 36l-283 282z" horiz-adv-x="1000" />

<glyph glyph-name="link-1" unicode="&#xe829;" d="M534 200c-47 0-94 18-130 54-10 10-10 26 0 35s26 10 35 0c53-52 138-52 190 0l182 182c52 52 52 138 0 190s-138 52-190 0l-153-154c-10-9-26-9-36 0s-9 26 0 36l154 153c72 72 188 72 260 0s72-188 0-260l-182-182c-36-36-83-54-130-54z m-300-300c-47 0-94 18-130 54-72 72-72 189 0 260l182 182c72 72 188 72 260 0 10-10 10-25 0-35s-26-10-35 0c-53 52-138 52-190 0l-182-182c-52-52-52-137 0-190s138-52 190 0l153 154c10 10 26 10 36 0s9-26 0-36l-154-153c-36-36-83-54-130-54z" horiz-adv-x="1000" />

<glyph glyph-name="puzzle" unicode="&#xeb8d;" d="M976-150h-254c-9 0-17 5-21 12-4 8-3 17 1 25 13 19 20 41 20 63 0 64-52 115-115 115s-115-51-115-115c0-22 7-44 20-63 4-8 5-17 1-25s-12-12-21-12h-254c-13 0-23 11-23 24v215c-17-6-35-9-52-9-90 0-162 73-162 162s72 162 162 162c17 0 35-3 52-8v215c0 13 10 24 23 24h216c-6 17-9 35-9 53 0 89 73 162 162 162s162-73 162-162c0-18-3-36-9-53h216c13 0 23-11 23-24v-254c0-9-4-17-12-21-8-4-17-3-24 2-19 12-41 19-64 19-64 0-115-51-115-115s51-114 115-114c23 0 45 7 64 19 7 5 16 6 24 1 8-4 12-12 12-20v-254c0-13-10-24-23-24z m-216 47h192v193c-17-6-35-10-53-10-90 0-162 73-162 162s72 162 162 162c18 0 36-3 53-9v192h-230c-9 0-17 5-21 13-4 8-4 17 1 24 13 19 20 41 20 64 0 63-52 115-115 115s-115-52-115-115c0-23 7-45 20-64 5-7 5-16 1-24s-12-13-21-13h-230v-229c0-9-5-17-12-21-8-4-17-4-25 1-18 13-40 19-62 19-64 0-115-51-115-115s51-114 115-114c22 0 44 6 62 19 8 4 17 5 25 1 7-5 12-13 12-21v-230h192c-6 17-9 35-9 53 0 90 73 162 162 162s162-72 162-162c0-18-3-36-9-53z" horiz-adv-x="1000" />

<glyph glyph-name="file-audio" unicode="&#xf1c7;" d="M819 638q16-16 27-42t11-50v-642q0-23-15-38t-38-16h-750q-23 0-38 16t-16 38v892q0 23 16 38t38 16h500q22 0 49-11t42-27z m-248 136v-210h210q-5 17-12 23l-175 175q-6 7-23 12z m215-853v572h-232q-23 0-38 16t-16 37v233h-429v-858h715z m-440 455q11-5 11-17v-304q0-12-11-16-4-1-7-1-6 0-12 5l-93 93h-73q-8 0-13 5t-5 13v107q0 8 5 13t13 5h73l93 93q8 8 19 4z m233-385q17 0 28 14 72 88 72 202t-72 203q-9 11-24 13t-27-8q-11-9-13-24t8-26q56-69 56-158t-56-157q-9-12-8-27t13-23q10-9 23-9z m-118 83q15 0 26 11 49 52 49 122t-49 122q-10 11-25 12t-26-10-11-25 10-26q29-32 29-73t-29-73q-10-11-10-26t11-25q12-9 25-9z" horiz-adv-x="857.1" />
</font>
</defs>
</svg>
