<?xml version="1.0" standalone="no"?>
<!DOCTYPE svg PUBLIC "-//W3C//DTD SVG 1.1//EN" "http://www.w3.org/Graphics/SVG/1.1/DTD/svg11.dtd" >
<svg xmlns="http://www.w3.org/2000/svg" xmlns:xlink="http://www.w3.org/1999/xlink" version="1.1">
<metadata>
Created by FontForge 20170731 at Tue Dec 31 07:18:15 2019
 By Aleksey,,,
Copyright 2019 indestructible type* (https://github.com/indestructible-type)
</metadata>
<defs>
<font id="Jost-Semi" horiz-adv-x="602" >
  <font-face 
    font-family="Jost* 600 Semi"
    font-weight="600"
    font-stretch="normal"
    units-per-em="1000"
    panose-1="0 0 0 0 0 0 0 0 0 0"
    ascent="800"
    descent="-200"
    x-height="460"
    cap-height="700"
    bbox="-148 -360 1708 1042"
    underline-thickness="50"
    underline-position="-175"
    unicode-range="U+000D-FF19"
  />
<missing-glyph horiz-adv-x="500" 
d="M50 -200h400v1000h-400v-1000zM100 -150v900h300v-900h-300z" />
    <glyph glyph-name=".notdef" horiz-adv-x="500" 
d="M50 -200h400v1000h-400v-1000zM100 -150v900h300v-900h-300z" />
    <glyph glyph-name="uni0000" horiz-adv-x="300" 
 />
    <glyph glyph-name="uni0000" horiz-adv-x="300" 
 />
    <glyph glyph-name="uni000D" unicode="&#xd;" horiz-adv-x="300" 
 />
    <glyph glyph-name="space" unicode=" " horiz-adv-x="300" 
 />
    <glyph glyph-name="exclam" unicode="!" horiz-adv-x="330" 
d="M84 700h162l-29 -478h-103zM83 56q0 33 23.5 54.5t59.5 21.5t59 -21.5t23 -54.5t-23 -55.5t-59 -22.5t-59.5 22.5t-23.5 55.5z" />
    <glyph glyph-name="quotedbl" unicode="&#x22;" horiz-adv-x="502" 
d="M112 700h142l-102 -314h-86zM314 700h142l-102 -314h-86z" />
    <glyph glyph-name="numbersign" unicode="#" horiz-adv-x="648" 
d="M35 180v104h100l33 136h-93v104h118l43 176h115l-44 -176h119l42 176h114l-43 -176h75v-104h-100l-33 -136h93v-104h-118l-44 -180h-114l43 180h-116l-44 -180h-115l44 180h-75zM243 280h128l35 144h-127z" />
    <glyph glyph-name="dollar" unicode="$" horiz-adv-x="608" 
d="M446 496q-22 44 -53.5 73t-76.5 29q-46 0 -67 -19.5t-21 -52.5q0 -32 22.5 -52t59 -35t78.5 -31q44 -16 85 -42.5t67 -68t26 -103.5q0 -85 -53 -137t-146 -64l3 -105h-109l3 106q-76 14 -136 63t-88 115l105 72q35 -66 75 -101t98 -35q50 0 73 21.5t23 60.5
q0 33 -20.5 54.5t-54.5 37.5t-75 31q-26 10 -58 25.5t-61 40.5t-47.5 61t-18.5 86q0 44 23.5 82t65 64t96.5 34l-3 112h109l-3 -113q75 -13 120 -54.5t69 -88.5z" />
    <glyph glyph-name="percent" unicode="%" horiz-adv-x="868" 
d="M26 539q0 49 23.5 89t64 64t92.5 24t92.5 -24t64 -64t23.5 -89t-23.5 -89t-64 -64t-92.5 -24t-92.5 24t-64 64t-23.5 89zM624 700h132l-512 -700h-131zM134 539q0 -30 20 -52.5t52 -22.5t51.5 22.5t19.5 52.5t-19.5 52.5t-51.5 22.5t-52 -22.5t-20 -52.5zM484 161
q0 49 23 89t63.5 64t92.5 24t92.5 -24t63.5 -64t23 -89t-23 -89t-63.5 -64t-92.5 -24t-92.5 24t-63.5 64t-23 89zM592 161q0 -30 19.5 -52.5t51.5 -22.5t51.5 22.5t19.5 52.5t-19.5 52.5t-51.5 22.5t-51.5 -22.5t-19.5 -52.5z" />
    <glyph glyph-name="ampersand" unicode="&#x26;" horiz-adv-x="728" 
d="M561 0l-57 63q-48 -34 -104.5 -54.5t-121.5 -20.5q-64 0 -118 24t-87 68.5t-33 105.5q0 58 26.5 97t66 64t78.5 42q-31 33 -59 71t-28 88q0 45 24.5 83t70 61t107.5 23t104.5 -23.5t65 -61.5t22.5 -80q0 -58 -36 -97.5t-104 -84.5l136 -150q25 26 48 55.5t44 60.5l90 -67
q-23 -33 -49.5 -66.5t-57.5 -64.5l123 -136h-151zM252 540q0 -25 17.5 -49t44.5 -53q82 51 82 102q0 29 -19 49t-53 20q-36 0 -54 -20t-18 -49zM177 197q0 -42 31.5 -69.5t85.5 -27.5q35 0 69.5 12t66.5 34l-150 167q-41 -20 -72 -46t-31 -70z" />
    <glyph glyph-name="quotesingle" unicode="'" horiz-adv-x="299" 
d="M112 700h142l-102 -314h-86z" />
    <glyph glyph-name="parenleft" unicode="(" horiz-adv-x="331" 
d="M194 780h119q-52 -112 -79.5 -237t-27.5 -253q0 -127 27.5 -252t79.5 -238h-119q-60 113 -90 238t-30 252q0 128 30 253t90 237z" />
    <glyph glyph-name="parenright" unicode=")" horiz-adv-x="331" 
d="M138 -200h-119q53 113 80 238t27 252q0 128 -27 253t-80 237h119q60 -112 89.5 -237t29.5 -253q0 -127 -29.5 -252t-89.5 -238z" />
    <glyph glyph-name="asterisk" unicode="*" horiz-adv-x="592" 
d="M213 261l-97 70l115 124l-165 35l36 112l154 -71l-19 169h118l-19 -169l154 71l36 -112l-165 -35l115 -124l-97 -70l-83 147z" />
    <glyph glyph-name="plus" unicode="+" horiz-adv-x="656" 
d="M65 202v126h196v200h135v-200h196v-126h-196v-200h-135v200h-196z" />
    <glyph glyph-name="comma" unicode="," horiz-adv-x="318" 
d="M128 110l131 -32l-121 -250l-98 23z" />
    <glyph glyph-name="hyphen" unicode="-" horiz-adv-x="218" 
d="M5 180v114h209v-114h-209z" />
    <glyph glyph-name="period" unicode="." horiz-adv-x="315" 
d="M76 60q0 33 23 57t59 24t59 -24t23 -57t-23 -57.5t-59 -24.5t-59 24.5t-23 57.5z" />
    <glyph glyph-name="slash" unicode="/" horiz-adv-x="580" 
d="M440 700h126l-420 -850h-131z" />
    <glyph glyph-name="zero" unicode="0" horiz-adv-x="643" 
d="M40 350q0 111 35.5 192.5t99 125.5t147.5 44q86 0 149.5 -44t98 -125.5t34.5 -192.5t-34.5 -192t-98 -125.5t-149.5 -44.5q-84 0 -147.5 44.5t-99 125.5t-35.5 192zM180 350q0 -106 39 -171t103 -65q65 0 103.5 65t38.5 171q0 107 -38.5 171.5t-103.5 64.5
q-64 0 -103 -64.5t-39 -171.5z" />
    <glyph glyph-name="one" unicode="1" horiz-adv-x="491" 
d="M72 517v129l307 66v-712h-140v560z" />
    <glyph glyph-name="two" unicode="2" horiz-adv-x="629" 
d="M20 0l318 332q40 42 62 78t22 78q0 38 -27 68.5t-80 30.5q-54 0 -85.5 -39t-31.5 -102h-142q0 75 30 135.5t89 96t144 35.5q63 0 110.5 -19.5t79 -51t47 -69.5t15.5 -76q0 -55 -27.5 -104.5t-71.5 -89.5l-180 -171h292v-132h-564z" />
    <glyph glyph-name="three" unicode="3" horiz-adv-x="598" 
d="M307 -14q-79 0 -136.5 31.5t-88 82.5t-30.5 111h142q0 -51 35 -78.5t83 -27.5t78.5 25t30.5 74q0 50 -39.5 79t-113.5 29v98q62 0 97.5 30.5t35.5 71.5q0 36 -21.5 59t-65.5 23q-42 0 -70.5 -25.5t-28.5 -64.5h-133q0 60 29 107t81.5 74t121.5 27q73 0 124.5 -26
t78.5 -69.5t27 -96.5q0 -54 -33 -92.5t-89 -60.5q65 -21 103.5 -64.5t38.5 -113.5q0 -60 -31.5 -106t-89 -71.5t-136.5 -25.5z" />
    <glyph glyph-name="four" unicode="4" horiz-adv-x="663" 
d="M16 129l400 571h99v-448h110v-123h-110v-129h-149v129h-350zM214 236h166v236z" />
    <glyph glyph-name="five" unicode="5" horiz-adv-x="620" 
d="M580 226q0 -61 -23 -106t-61.5 -74t-86.5 -43.5t-99 -14.5q-97 0 -162 32.5t-110 75.5l68 112q36 -39 84 -63.5t93 -24.5q67 0 104.5 30.5t37.5 87.5q0 38 -20 64t-52.5 39.5t-69.5 13.5q-43 0 -90.5 -9.5t-100.5 -39.5l96 394h382v-126h-276l-42 -142q27 14 56.5 19.5
t60.5 5.5q57 0 105 -28t77 -79.5t29 -123.5z" />
    <glyph glyph-name="six" unicode="6" horiz-adv-x="641" 
d="M332 698h182l-204 -241q15 6 31.5 8.5t36.5 2.5q54 0 103 -28t80 -79t31 -120q0 -82 -36.5 -139t-98 -86.5t-136.5 -29.5t-136.5 29.5t-98 86.5t-36.5 139q0 53 20 98t50 82zM191 241q0 -58 37.5 -94.5t92.5 -36.5q56 0 92.5 36.5t36.5 94.5q0 59 -36.5 96t-92.5 37
q-55 0 -92.5 -37t-37.5 -96z" />
    <glyph glyph-name="seven" unicode="7" horiz-adv-x="579" 
d="M30 566v134h546l-336 -700h-155l280 566h-335z" />
    <glyph glyph-name="eight" unicode="8" 
d="M53 190q0 70 38 114.5t92 66.5q-46 22 -75.5 62t-29.5 98q0 56 30 97t81 63.5t113 22.5t112.5 -22.5t80.5 -63.5t30 -97q0 -58 -29 -98t-75 -62q54 -22 91.5 -66.5t37.5 -114.5q0 -61 -34 -107t-90.5 -71.5t-123.5 -25.5t-123.5 25.5t-91 71.5t-34.5 107zM214 517
q0 -39 25.5 -64t62.5 -25t62 25t25 64t-24 64t-63 25t-63.5 -25t-24.5 -64zM195 211q0 -51 32.5 -79t74.5 -28t74 28t32 79q0 29 -15 53t-39 38t-52 14t-52.5 -14t-39.5 -38t-15 -53z" />
    <glyph glyph-name="nine" unicode="9" horiz-adv-x="641" 
d="M310 2h-183l205 241q-15 -7 -31.5 -9t-36.5 -2q-54 0 -103 28t-80 79t-31 120q0 82 36.5 139t98 86.5t136.5 29.5t136.5 -29.5t98 -86.5t36.5 -139q0 -52 -20.5 -97t-50.5 -83zM450 459q0 59 -36.5 95t-92.5 36q-55 0 -92.5 -36t-37.5 -95q0 -58 37.5 -95.5t92.5 -37.5
q56 0 92.5 37.5t36.5 95.5z" />
    <glyph glyph-name="colon" unicode=":" horiz-adv-x="315" 
d="M76 436q0 33 23 56.5t59 23.5t59 -23.5t23 -56.5t-23 -57.5t-59 -24.5t-59 24.5t-23 57.5zM76 60q0 33 23 57t59 24t59 -24t23 -57t-23 -57.5t-59 -24.5t-59 24.5t-23 57.5z" />
    <glyph glyph-name="semicolon" unicode=";" horiz-adv-x="374" 
d="M121 431q0 33 23 57t59 24t59.5 -24t23.5 -57t-23.5 -57t-59.5 -24t-59 24t-23 57zM144 110l130 -32l-121 -250l-97 23z" />
    <glyph glyph-name="less" unicode="&#x3c;" horiz-adv-x="640" 
d="M256 266l319 -134v-128l-510 216v84l510 216v-128z" />
    <glyph glyph-name="equal" unicode="=" horiz-adv-x="622" 
d="M58 290v114h506v-114h-506zM58 101v114h506v-114h-506z" />
    <glyph glyph-name="greater" unicode="&#x3e;" horiz-adv-x="640" 
d="M384 258l-319 134v128l510 -216v-84l-510 -216v128z" />
    <glyph glyph-name="question" unicode="?" horiz-adv-x="606" 
d="M419 500q0 50 -33 77t-90 27q-47 0 -87.5 -22.5t-66.5 -63.5l-90 72q48 59 106.5 92.5t147.5 33.5q65 0 120.5 -26.5t89.5 -75t34 -114.5q0 -60 -31 -105.5t-79.5 -73.5t-102.5 -35l-6 -94h-103l-20 177h30q60 0 100.5 20.5t60.5 51t20 59.5zM198 54q0 30 23.5 52
t59.5 22t59 -22t23 -52t-23 -53t-59 -23t-59.5 23t-23.5 53z" />
    <glyph glyph-name="at" unicode="@" horiz-adv-x="770" 
d="M24 320q0 84 29 156t81 126.5t124 85t157 30.5q80 0 142 -28t104 -75t63.5 -105.5t21.5 -119.5q0 -89 -28.5 -142.5t-72 -77.5t-87.5 -24q-39 0 -68.5 23.5t-36.5 59.5q-22 -36 -55 -54.5t-70 -18.5q-58 0 -96 42t-38 116q0 70 25.5 118t65 73t79.5 25q32 0 57.5 -17
t41.5 -45l6 52h104l-31 -218q-1 -5 -1.5 -12.5t-0.5 -13.5q0 -18 6 -30t24 -12q13 0 31.5 13.5t32.5 47.5t14 95q0 65 -26 119.5t-78 87.5t-129 33q-90 0 -155.5 -40t-101.5 -110t-36 -160q0 -115 65.5 -183.5t186.5 -68.5q53 0 98.5 10.5t90.5 35.5l37 -80
q-45 -25 -100 -40t-135 -15q-111 0 -187 44t-115 121t-39 176zM301 320q0 -74 56 -74q20 0 40 13.5t33.5 40t13.5 66.5q0 38 -16.5 56t-42.5 18q-33 0 -58.5 -34.5t-25.5 -85.5z" />
    <glyph glyph-name="A" unicode="A" horiz-adv-x="712" 
d="M549 0l-73 158h-240l-72 -158h-163l355 742l356 -742h-163zM356 472l-86 -200h172z" />
    <glyph glyph-name="B" unicode="B" horiz-adv-x="632" 
d="M586 200q0 -69 -33 -113.5t-92 -65.5t-137 -21h-248v700h234q69 0 122 -19.5t83.5 -58.5t30.5 -99q0 -52 -28 -88.5t-76 -56.5q62 -19 103 -62.5t41 -115.5zM297 586h-77v-166h77q47 0 74 22.5t27 61.5t-27 60.5t-74 21.5zM220 114h92q54 0 90 25t36 79q0 51 -36 74.5
t-90 23.5h-92v-202z" />
    <glyph glyph-name="C" unicode="C" horiz-adv-x="695" 
d="M192 350q0 -69 31 -120t82 -78.5t111 -27.5q74 0 126.5 28t87.5 68v-162q-43 -34 -93 -53t-127 -19q-81 0 -149.5 26.5t-118.5 74.5t-78 115t-28 148t28 148t78 115t118.5 74.5t149.5 26.5q77 0 127 -18.5t93 -53.5v-162q-35 41 -87.5 68.5t-126.5 27.5q-60 0 -111 -27.5
t-82 -78t-31 -120.5z" />
    <glyph glyph-name="D" unicode="D" horiz-adv-x="717" 
d="M314 0h-238v700h238q111 0 193.5 -43t128.5 -121.5t46 -185.5q0 -106 -46 -185t-128.5 -122t-193.5 -43zM310 569h-86v-438h86q62 0 112.5 22.5t81 71t30.5 125.5t-30.5 125.5t-81 71t-112.5 22.5z" />
    <glyph glyph-name="E" unicode="E" horiz-adv-x="587" 
d="M76 700h446v-122h-306v-147h286v-119h-286v-190h306v-122h-446v700z" />
    <glyph glyph-name="F" unicode="F" horiz-adv-x="537" 
d="M76 700h406v-126h-266v-156h256v-120h-256v-298h-140v700z" />
    <glyph glyph-name="G" unicode="G" horiz-adv-x="802" 
d="M416 260v114h346q3 -80 -19 -151t-67 -125t-112 -85t-154 -31q-109 0 -193.5 46.5t-132.5 129.5t-48 192t49 191t134.5 127.5t194.5 45.5q107 0 184 -43.5t125 -116.5l-123 -72q-27 45 -72.5 74.5t-113.5 29.5q-63 0 -115 -28.5t-82.5 -81.5t-30.5 -126t30 -127
t81.5 -83.5t116.5 -29.5q86 0 135.5 43.5t66.5 106.5h-200z" />
    <glyph glyph-name="H" unicode="H" horiz-adv-x="764" 
d="M76 700h144v-262h326v262h144v-700h-144v307h-326v-307h-144v700z" />
    <glyph glyph-name="I" unicode="I" horiz-adv-x="297" 
d="M76 700h146v-700h-146v700z" />
    <glyph glyph-name="J" unicode="J" horiz-adv-x="303" 
d="M-70 -76q14 -15 35 -24t45 -9q23 0 44.5 18.5t21.5 64.5v726h152v-756q0 -63 -28 -102t-75 -57.5t-105 -18.5q-52 0 -98 19t-70 37z" />
    <glyph glyph-name="K" unicode="K" horiz-adv-x="659" 
d="M76 700h148v-284l249 284h171l-290 -328l304 -372h-174l-260 317v-317h-148v700z" />
    <glyph glyph-name="L" unicode="L" horiz-adv-x="504" 
d="M76 700h144v-574h279v-126h-423v700z" />
    <glyph glyph-name="M" unicode="M" horiz-adv-x="866" 
d="M232 391l-46 -391h-150l104 735l294 -451l292 451l106 -735h-151l-45 391l-202 -326z" />
    <glyph glyph-name="N" unicode="N" horiz-adv-x="787" 
d="M573 700h139v-735l-496 467v-432h-140v735l497 -467v432z" />
    <glyph glyph-name="O" unicode="O" horiz-adv-x="811" 
d="M36 350q0 80 28 146.5t78.5 115t117.5 75.5t146 27q80 0 147 -27t117.5 -75.5t78 -115t27.5 -146.5q0 -79 -27.5 -146.5t-77 -117t-117 -77t-148.5 -27.5t-148.5 27.5t-117 77t-77 117t-27.5 146.5zM188 350q0 -67 27.5 -119t77 -81.5t113.5 -29.5q65 0 114 29.5
t76.5 81.5t27.5 119t-27 119t-76 81.5t-115 29.5q-64 0 -113.5 -29.5t-77 -81.5t-27.5 -119z" />
    <glyph glyph-name="P" unicode="P" horiz-adv-x="600" 
d="M76 700h227q125 0 193 -60t68 -164q0 -103 -68 -162.5t-193 -59.5h-83v-254h-144v700zM303 578h-83v-202h83q56 0 89 25.5t33 74.5q0 50 -33 76t-89 26z" />
    <glyph glyph-name="Q" unicode="Q" horiz-adv-x="841" 
d="M36 350q0 80 28.5 146.5t79 115t118 75.5t146.5 27q80 0 147 -27t116.5 -75.5t77 -115t27.5 -146.5q0 -65 -18.5 -122.5t-52.5 -102.5l141 -133h-160l-59 56q-45 -31 -100.5 -48.5t-118.5 -17.5q-81 0 -149 27.5t-118 77t-77.5 117t-27.5 146.5zM188 350q0 -71 30 -124.5
t82 -83.5t116 -30t115 28l-168 160h156l88 -83q30 52 30 119t-28 122.5t-79.5 88.5t-121.5 33q-64 0 -114 -29.5t-78 -81.5t-28 -119z" />
    <glyph glyph-name="R" unicode="R" horiz-adv-x="620" 
d="M76 700h236q83 0 141.5 -28.5t89.5 -78.5t31 -117q0 -74 -38 -127.5t-110 -77.5l190 -271h-171l-163 254h-62v-254h-144v700zM303 576h-83v-208h83q56 0 89 27.5t33 76.5q0 50 -33 77t-89 27z" />
    <glyph glyph-name="S" unicode="S" horiz-adv-x="601" 
d="M138 236q33 -58 76.5 -94t99.5 -36q44 0 70 22.5t26 59.5q0 32 -16.5 52.5t-48.5 36t-79 33.5q-26 10 -58 25t-61.5 39.5t-48.5 60t-19 85.5q0 59 30.5 102.5t83 67.5t118.5 24t115 -22.5t81.5 -57t50.5 -70.5l-112 -64q-22 38 -55 64.5t-80 26.5q-42 0 -63 -19.5
t-21 -45.5q0 -39 39 -64.5t118 -52.5q46 -16 86.5 -43.5t66 -69t25.5 -100.5q0 -68 -35 -116t-91.5 -73t-119.5 -25q-65 0 -120.5 24t-97 65t-64.5 91z" />
    <glyph glyph-name="T" unicode="T" horiz-adv-x="532" 
d="M6 570v130h521v-130h-189v-570h-144v570h-188z" />
    <glyph glyph-name="U" unicode="U" horiz-adv-x="678" 
d="M71 700h143v-462q0 -58 32 -94.5t93 -36.5q62 0 93.5 36.5t31.5 94.5v462h144v-470q0 -82 -35 -139t-96 -86t-138 -29t-137.5 29t-95.5 86t-35 139v470z" />
    <glyph glyph-name="V" unicode="V" horiz-adv-x="712" 
d="M356 246l188 454h168l-356 -742l-355 742h167z" />
    <glyph glyph-name="W" unicode="W" horiz-adv-x="1042" 
d="M718 266l150 434h168l-294 -739l-221 457l-221 -457l-294 739h169l151 -434l195 469z" />
    <glyph glyph-name="X" unicode="X" horiz-adv-x="646" 
d="M450 700h176l-216 -338l231 -362h-177l-138 250l-144 -250h-176l236 362l-211 338h176l120 -220z" />
    <glyph glyph-name="Y" unicode="Y" horiz-adv-x="630" 
d="M465 700h165l-241 -410v-290h-147v289l-241 411h165l149 -282z" />
    <glyph glyph-name="Z" unicode="Z" horiz-adv-x="597" 
d="M50 570v130h532l-342 -574h311v-126h-540l339 570h-300z" />
    <glyph glyph-name="bracketleft" unicode="[" horiz-adv-x="343" 
d="M223 666v-772h101v-114h-230v1000h230v-114h-101z" />
    <glyph glyph-name="backslash" unicode="\" horiz-adv-x="536" 
d="M15 700h129l378 -700h-128z" />
    <glyph glyph-name="bracketright" unicode="]" horiz-adv-x="343" 
d="M121 -106v772h-101v114h230v-1000h-230v114h101z" />
    <glyph glyph-name="asciicircum" unicode="^" horiz-adv-x="510" 
d="M255 592l-89 -140h-118l170 258h74l170 -258h-118z" />
    <glyph glyph-name="underscore" unicode="_" horiz-adv-x="521" 
d="M0 -148v84h522v-84h-522z" />
    <glyph glyph-name="grave" unicode="`" horiz-adv-x="375" 
d="M60 656l104 48l150 -160l-74 -38z" />
    <glyph glyph-name="a" unicode="a" horiz-adv-x="521" 
d="M106 330l-48 88q36 19 88 36.5t116 17.5q59 0 105 -17t72.5 -49.5t26.5 -79.5v-326h-126v63q-21 -36 -63.5 -54.5t-88.5 -18.5q-44 0 -81 17t-59 49.5t-22 79.5q0 66 47 105.5t133 39.5q44 0 77.5 -9t56.5 -21v47q0 38 -24.5 55t-67.5 17q-48 0 -88 -15t-54 -25zM157 144
q0 -31 21 -47.5t54 -16.5q44 0 76 26.5t32 77.5q-45 20 -98 20q-45 0 -65 -15.5t-20 -44.5z" />
    <glyph glyph-name="b" unicode="b" 
d="M570 230q0 -76 -31.5 -130t-82 -82t-108.5 -28q-101 0 -156 84v-74h-130v780h130v-393q55 83 156 83q58 0 108.5 -28t82 -81.5t31.5 -130.5zM434 230q0 62 -36.5 97t-87.5 35q-28 0 -55 -15.5t-45 -45t-18 -71.5t18 -71.5t45 -45t55 -15.5q51 0 87.5 35.5t36.5 96.5z" />
    <glyph glyph-name="c" unicode="c" horiz-adv-x="488" 
d="M164 230q0 -60 38.5 -96.5t93.5 -36.5q45 0 84.5 20t58.5 53v-133q-50 -47 -151 -47q-74 0 -132.5 30t-92 84.5t-33.5 125.5q0 72 33.5 126t92 84t132.5 30q50 0 88.5 -13t62.5 -33v-134q-19 33 -60 53t-83 20q-37 0 -67 -17.5t-47.5 -47.5t-17.5 -68z" />
    <glyph glyph-name="d" unicode="d" 
d="M33 230q0 77 31 130.5t81.5 81.5t108.5 28q103 0 158 -86v396h130v-780h-130v76q-55 -86 -158 -86q-58 0 -108.5 28t-81.5 82t-31 130zM168 230q0 -61 36.5 -96.5t87.5 -35.5q28 0 55.5 15.5t46 45t18.5 71.5t-18.5 71.5t-46 45t-55.5 15.5q-51 0 -87.5 -35t-36.5 -97z
" />
    <glyph glyph-name="e" unicode="e" horiz-adv-x="555" 
d="M282 -10q-76 0 -132 29.5t-86.5 83.5t-30.5 127q0 110 67 175t182 65q114 0 177 -61.5t63 -172.5q0 -10 -1 -19t-1 -15h-355q6 -54 36.5 -83.5t80.5 -29.5q85 0 124 67l114 -36q-72 -130 -238 -130zM280 378q-94 0 -112 -97h214q-4 44 -31.5 70.5t-70.5 26.5z" />
    <glyph glyph-name="f" unicode="f" horiz-adv-x="326" 
d="M24 460h54v170q0 79 41.5 121.5t120.5 42.5q45 0 73.5 -16t42.5 -31l-56 -97q-10 15 -22 20t-26 5q-22 0 -35 -18t-13 -57v-140h110v-110h-110v-350h-126v350h-54v110z" />
    <glyph glyph-name="g" unicode="g" horiz-adv-x="598" 
d="M42 -32h128q3 -45 34 -71t82 -26q33 0 62 15t46.5 46t17.5 78v71q-54 -83 -158 -83q-58 0 -108.5 27t-81.5 80t-31 129q0 77 31 129.5t81.5 79.5t108.5 27q104 0 158 -83v73h125v-450q0 -86 -33.5 -140.5t-89.5 -80t-122 -25.5q-121 0 -182.5 56.5t-67.5 147.5zM168 234
q0 -61 36.5 -94.5t87.5 -33.5q28 0 55.5 14.5t46 43t18.5 70.5t-18.5 70.5t-46 43t-55.5 14.5q-51 0 -87.5 -33t-36.5 -95z" />
    <glyph glyph-name="h" unicode="h" horiz-adv-x="555" 
d="M362 280q0 45 -17.5 69.5t-58.5 24.5q-40 0 -66 -25t-26 -69v-280h-130v780h130v-387q20 38 55.5 60t84.5 22q81 0 119.5 -45.5t38.5 -131.5v-298h-130v280z" />
    <glyph glyph-name="i" unicode="i" horiz-adv-x="271" 
d="M58 638q0 32 22.5 53t55.5 21t55.5 -21t22.5 -53q0 -31 -22.5 -52.5t-55.5 -21.5t-55.5 21.5t-22.5 52.5zM72 460h126v-460h-126v460z" />
    <glyph glyph-name="j" unicode="j" horiz-adv-x="264" 
d="M50 638q0 32 22.5 52.5t55.5 20.5t55.5 -20.5t22.5 -52.5q0 -31 -22.5 -52.5t-55.5 -21.5t-55.5 21.5t-22.5 52.5zM-28 -88q9 -12 20 -19t26 -7q48 0 48 75v499h127v-528q0 -75 -41 -120.5t-121 -45.5q-44 0 -71 15t-44 33z" />
    <glyph glyph-name="k" unicode="k" horiz-adv-x="535" 
d="M356 460h156l-198 -190l218 -270h-155l-190 234v-234h-125v780h125v-482z" />
    <glyph glyph-name="l" unicode="l" horiz-adv-x="258" 
d="M64 780h130v-780h-130v780z" />
    <glyph glyph-name="m" unicode="m" horiz-adv-x="808" 
d="M744 294v-294h-130v280q0 94 -67 94q-36 0 -58 -24t-22 -70v-280h-131v280q0 94 -66 94q-36 0 -58 -24t-22 -70v-280h-126v460h126v-68q20 38 52.5 58t78.5 20q105 0 133 -78q50 78 144 78q77 0 111.5 -46t34.5 -130z" />
    <glyph glyph-name="n" unicode="n" horiz-adv-x="560" 
d="M362 280q0 45 -17.5 69.5t-58.5 24.5q-40 0 -66 -25t-26 -69v-280h-130v460h130v-70q43 80 140 80q82 0 122 -46.5t40 -129.5v-294h-134v280z" />
    <glyph glyph-name="o" unicode="o" horiz-adv-x="576" 
d="M33 230q0 72 33.5 126t91 84t130.5 30t131 -30t91.5 -84t33.5 -126q0 -71 -33.5 -125.5t-91.5 -84.5t-131 -30t-130.5 30t-91 84.5t-33.5 125.5zM166 230q0 -58 35.5 -94t86.5 -36t86.5 36t35.5 94q0 59 -35.5 94.5t-86.5 35.5t-86.5 -35.5t-35.5 -94.5z" />
    <glyph glyph-name="p" unicode="p" 
d="M192 -220h-130v680h130v-75q25 42 64.5 65.5t91.5 23.5q58 0 108.5 -28t82 -82.5t31.5 -133.5t-31.5 -133.5t-82 -82.5t-108.5 -28q-52 0 -91.5 23.5t-64.5 65.5v-295zM434 230q0 62 -36.5 95t-87.5 33q-28 0 -55 -14.5t-45 -43t-18 -70.5t18 -70.5t45 -43t55 -14.5
q51 0 87.5 33.5t36.5 94.5z" />
    <glyph glyph-name="q" unicode="q" 
d="M33 230q0 79 31 133.5t81.5 82.5t108.5 28q52 0 92.5 -23.5t65.5 -66.5v76h130v-680h-130v296q-25 -43 -65.5 -66.5t-92.5 -23.5q-58 0 -108.5 28t-81.5 82.5t-31 133.5zM168 230q0 -61 36.5 -94.5t87.5 -33.5q28 0 55.5 14.5t46 43t18.5 70.5t-18.5 70.5t-46 43
t-55.5 14.5q-51 0 -87.5 -33t-36.5 -95z" />
    <glyph glyph-name="r" unicode="r" horiz-adv-x="390" 
d="M327 324q-13 12 -26.5 18.5t-33.5 6.5q-37 0 -56 -28t-19 -78v-243h-128v460h128v-57q21 31 50 49t60 18q25 0 48 -9t36 -27z" />
    <glyph glyph-name="s" unicode="s" horiz-adv-x="440" 
d="M87 159q44 -40 79 -57.5t65 -17.5q53 0 53 42q0 26 -24.5 41.5t-75.5 32.5q-32 11 -62 27.5t-49 44t-19 70.5q0 63 47.5 95.5t116.5 32.5q58 0 106 -21t82 -53l-57 -82q-25 27 -60 44.5t-67 17.5q-22 0 -35 -9t-13 -25q0 -25 29 -38t75 -31q37 -14 68 -31.5t49.5 -43.5
t18.5 -68q0 -69 -44.5 -107.5t-123.5 -38.5q-73 0 -128.5 28t-93.5 66z" />
    <glyph glyph-name="t" unicode="t" horiz-adv-x="294" 
d="M5 460h79v160h126v-160h80v-110h-80v-350h-126v350h-79v110z" />
    <glyph glyph-name="u" unicode="u" horiz-adv-x="560" 
d="M199 180q0 -44 17.5 -69t57.5 -25q41 0 66.5 25.5t25.5 68.5v280h130v-460h-130v70q-43 -80 -140 -80q-81 0 -121.5 47t-40.5 129v294h135v-280z" />
    <glyph glyph-name="v" unicode="v" horiz-adv-x="500" 
d="M-2 460h140l113 -276l113 276h140l-253 -508z" />
    <glyph glyph-name="w" unicode="w" horiz-adv-x="736" 
d="M-4 460h138l102 -254l130 289l134 -291l102 256h139l-227 -491l-148 292l-144 -292z" />
    <glyph glyph-name="x" unicode="x" horiz-adv-x="498" 
d="M344 460h144l-170 -224l180 -236h-144l-102 146l-103 -146h-149l182 236l-172 224h149l93 -132z" />
    <glyph glyph-name="y" unicode="y" horiz-adv-x="496" 
d="M504 460l-300 -680h-134l116 266l-192 414h145l115 -285l114 285h136z" />
    <glyph glyph-name="z" unicode="z" horiz-adv-x="503" 
d="M269 341h-215v119h435l-247 -341h218v-119h-445z" />
    <glyph glyph-name="braceleft" unicode="{" horiz-adv-x="371" 
d="M240 625v-135q0 -37 -4 -77.5t-21 -74t-54 -48.5q37 -15 54 -48.5t21 -74t4 -77.5v-135q0 -19 13 -34.5t35 -15.5h34v-105h-82q-35 0 -67.5 14.5t-53.5 45.5t-21 80v192q0 57 -13.5 80t-42.5 30v96q29 8 42.5 30.5t13.5 79.5v192q0 50 21 80.5t53.5 45t67.5 14.5h82v-105
h-34q-22 0 -35 -15t-13 -35z" />
    <glyph glyph-name="bar" unicode="|" horiz-adv-x="328" 
d="M100 785h130v-1000h-130v1000z" />
    <glyph glyph-name="braceright" unicode="}" horiz-adv-x="371" 
d="M138 -45v135q0 37 4 77.5t20.5 74t53.5 48.5q-37 15 -53.5 48.5t-20.5 74t-4 77.5v135q0 20 -12.5 35t-35.5 15h-35v105h82q35 0 68 -14.5t54 -45t21 -80.5v-192q0 -57 14 -79.5t42 -30.5v-96q-28 -7 -42 -30t-14 -80v-192q0 -49 -21 -80t-54 -45.5t-68 -14.5h-82v105h35
q23 0 35.5 15.5t12.5 34.5z" />
    <glyph glyph-name="asciitilde" unicode="~" horiz-adv-x="575" 
d="M152 168l-106 4q-1 5 -1.5 11t-0.5 13q0 23 6 45t22 43q20 26 48.5 41t73.5 15q32 0 61 -12t63 -36q46 -34 72 -34q18 0 27 11.5t9 30.5q0 17 -6 32l108 -6q2 -6 3 -13t1 -15q0 -21 -5.5 -44.5t-21.5 -43.5q-19 -25 -44 -38.5t-63 -13.5q-28 0 -57 13t-64 37
q-46 34 -84 34q-25 0 -36 -14t-11 -34q0 -8 2 -14z" />
    <glyph glyph-name="uni00A0" unicode="&#xa0;" horiz-adv-x="300" 
 />
    <glyph glyph-name="exclamdown" unicode="&#xa1;" horiz-adv-x="330" 
d="M248 411q0 -33 -23 -55t-59 -22t-59.5 22t-23.5 55t23.5 55t59.5 22t59 -22t23 -55zM246 -234h-162l30 478h103z" />
    <glyph glyph-name="cent" unicode="&#xa2;" horiz-adv-x="580" 
d="M192 230q0 -41 18.5 -71t49 -46t66.5 -16q50 0 86.5 21t55.5 52v-134q-20 -19 -51.5 -30t-68.5 -15l4 -103h-109l4 110q-83 19 -135 80.5t-52 151.5t52 151.5t136 80.5l-5 116h109l-4 -109q78 -8 120 -45v-134q-19 31 -55.5 52t-86.5 21q-36 0 -66.5 -17t-49 -47
t-18.5 -69z" />
    <glyph glyph-name="sterling" unicode="&#xa3;" horiz-adv-x="601" 
d="M67 370h92q-22 29 -43.5 63t-21.5 87q0 60 31 102.5t83.5 65t116.5 22.5q55 0 97 -18.5t71.5 -48t45 -63.5t17.5 -66l-117 -44q-2 30 -13 58t-34 45.5t-62 17.5t-68.5 -21t-29.5 -68q0 -43 20.5 -71.5t40.5 -60.5h147v-92h-116v-10q0 -41 -19 -78.5t-48 -67.5h275v-122
h-476q74 77 108 140t34 135v3h-131v92z" />
    <glyph glyph-name="currency" unicode="&#xa4;" horiz-adv-x="577" 
d="M86 38l-59 59l66 64q-20 29 -30.5 64t-10.5 75t10.5 75t30.5 64l-66 64l59 59l64 -65q29 21 64.5 32t75.5 11q39 0 74.5 -11t64.5 -31l63 64l58 -59l-64 -63q20 -29 31 -64.5t11 -75.5t-11 -75.5t-31 -64.5l64 -63l-58 -59l-63 64q-29 -20 -64.5 -31t-74.5 -11
q-40 0 -75.5 11t-64.5 32zM172 300q0 -54 33.5 -87.5t84.5 -33.5t84 33.5t33 87.5t-33 87.5t-84 33.5t-84.5 -33.5t-33.5 -87.5z" />
    <glyph glyph-name="yen" unicode="&#xa5;" horiz-adv-x="642" 
d="M45 122v93h203v57h-203v93h159l-198 335h166l149 -282l150 282h164l-196 -335h155v-93h-198v-57h198v-93h-198v-122h-148v122h-203z" />
    <glyph glyph-name="brokenbar" unicode="&#xa6;" horiz-adv-x="328" 
d="M100 695h130v-257h-130v257zM230 262v-257h-130v257h130z" />
    <glyph glyph-name="section" unicode="&#xa7;" horiz-adv-x="526" 
d="M118 170q29 -39 68.5 -59t72.5 -20q63 0 63 42q0 27 -29.5 40.5t-70.5 26.5q-36 11 -69 29.5t-54.5 46.5t-21.5 66q0 43 25 73t67 46q-33 18 -57.5 46.5t-24.5 74.5q0 45 26 75.5t66.5 46.5t82.5 16q39 0 75.5 -11t64.5 -29t40 -40l-68 -82q-19 24 -49.5 37.5t-55.5 13.5
q-57 0 -57 -34q0 -22 32 -34.5t72 -25.5q54 -17 94 -51.5t40 -87.5q0 -45 -22.5 -75.5t-59.5 -46.5q35 -20 60 -49.5t25 -74.5q0 -51 -27 -84t-70 -48.5t-93 -15.5q-76 0 -132 31t-83 77zM200 369q0 -24 13.5 -39.5t34.5 -25t43 -17.5q17 10 27 27t10 36q0 32 -26 49.5
t-59 30.5q-19 -10 -31 -24.5t-12 -36.5z" />
    <glyph glyph-name="dieresis" unicode="&#xa8;" horiz-adv-x="498" 
d="M286 640q0 32 23 53t56 21t55.5 -21t22.5 -53q0 -31 -22.5 -52.5t-55.5 -21.5t-56 21.5t-23 52.5zM56 640q0 32 22.5 53t55.5 21t55.5 -21t22.5 -53q0 -31 -22.5 -52.5t-55.5 -21.5t-55.5 21.5t-22.5 52.5z" />
    <glyph glyph-name="copyright" unicode="&#xa9;" horiz-adv-x="800" 
d="M40 350q0 78 27.5 144t76 114.5t114.5 75t142 26.5q77 0 142.5 -26.5t114 -75t76 -114.5t27.5 -144t-27.5 -144t-76 -114.5t-114 -75t-142.5 -26.5q-76 0 -142 26.5t-114.5 75t-76 114.5t-27.5 144zM95 350q0 -89 40 -159t109.5 -110.5t155.5 -40.5q87 0 156 40.5
t109 110.5t40 159t-40 159t-109 110.5t-156 40.5q-86 0 -155.5 -40.5t-109.5 -110.5t-40 -159zM274 350q0 -63 39 -99.5t96 -36.5q44 0 75.5 17t52.5 41v-98q-25 -21 -55.5 -32t-76.5 -11q-65 0 -116 28t-80 77.5t-29 113.5q0 65 29 114t80 77t116 28q46 0 76.5 -11
t55.5 -32v-98q-21 24 -52.5 41t-75.5 17q-57 0 -96 -36.5t-39 -99.5z" />
    <glyph glyph-name="ordfeminine" unicode="&#xaa;" horiz-adv-x="260" 
d="M63 632l-24 46q18 9 44 18t57 9q44 0 72 -19t28 -54v-172h-62v33q-10 -18 -31 -28t-47 -10q-34 0 -58 19.5t-24 54.5t30 56t70 21q19 0 34 -4.5t26 -9.5v26q0 16 -11.5 25t-30.5 9q-25 0 -45 -7t-28 -13zM84 530q0 -29 38 -29q21 0 38.5 11t17.5 40v6q-20 10 -48 10
q-21 0 -33.5 -11t-12.5 -27z" />
    <glyph glyph-name="guillemotleft" unicode="&#xab;" horiz-adv-x="531" 
d="M334 259l150 -194l-80 -59l-182 249l182 249l80 -59zM144 259l150 -194l-82 -59l-180 249l180 249l82 -59z" />
    <glyph glyph-name="logicalnot" unicode="&#xac;" horiz-adv-x="641" 
d="M65 280v114h511v-219h-96v105h-415z" />
    <glyph glyph-name="uni00AD" unicode="&#xad;" horiz-adv-x="210" 
d="M5 200v75h200v-75h-200z" />
    <glyph glyph-name="registered" unicode="&#xae;" horiz-adv-x="800" 
d="M40 350q0 78 27.5 144t76 114.5t114.5 75t142 26.5q77 0 142.5 -26.5t114 -75t76 -114.5t27.5 -144t-27.5 -144t-76 -114.5t-114 -75t-142.5 -26.5q-76 0 -142 26.5t-114.5 75t-76 114.5t-27.5 144zM95 350q0 -89 40 -159t109.5 -110.5t155.5 -40.5q87 0 156 40.5
t109 110.5t40 159t-40 159t-109 110.5t-156 40.5q-86 0 -155.5 -40.5t-109.5 -110.5t-40 -159zM260 570h142q74 0 115 -37t41 -93q0 -46 -24 -78.5t-69 -45.5l114 -166h-102l-92 157h-39v-157h-86v420zM396 496h-50v-121h50q34 0 54 15.5t20 45.5t-20 45t-54 15z" />
    <glyph glyph-name="macron" unicode="&#xaf;" horiz-adv-x="524" 
d="M80 580v114h366v-114h-366z" />
    <glyph glyph-name="degree" unicode="&#xb0;" horiz-adv-x="290" 
d="M18 598q0 54 36.5 88t91.5 34q56 0 92 -34t36 -88t-36 -88t-92 -34q-55 0 -91.5 34t-36.5 88zM82 598q0 -30 18.5 -48t45.5 -18t45 18t18 48t-18 48t-45 18t-45.5 -18t-18.5 -48z" />
    <glyph glyph-name="plusminus" unicode="&#xb1;" horiz-adv-x="627" 
d="M65 336v120h183v164h133v-164h183v-120h-183v-164h-133v164h-183zM65 4v115h499v-115h-499z" />
    <glyph glyph-name="uni00B2" unicode="&#xb2;" horiz-adv-x="389" 
d="M25 282l191 200q24 26 37 47t13 46q0 23 -15 41.5t-47 18.5q-33 0 -52.5 -23.5t-19.5 -61.5h-86q0 45 19 81t55 57.5t87 21.5q50 0 83 -20.5t49.5 -51t16.5 -61.5q0 -33 -17 -61.5t-43 -52.5l-108 -101h175v-80h-338z" />
    <glyph glyph-name="uni00B3" unicode="&#xb3;" horiz-adv-x="349" 
d="M174 271q-48 0 -82.5 19t-53 50t-18.5 67h86q0 -31 20.5 -47.5t49.5 -16.5t47.5 14.5t18.5 44.5t-23.5 48t-68.5 18v58q36 0 58 18.5t22 43.5q0 23 -13 36t-39 13q-25 0 -42.5 -15.5t-17.5 -39.5h-80q0 54 38.5 90t101.5 36q66 0 102 -34.5t36 -81.5q0 -32 -19.5 -55.5
t-52.5 -36.5q38 -12 61 -38.5t23 -67.5q0 -54 -41.5 -88.5t-112.5 -34.5z" />
    <glyph glyph-name="acute" unicode="&#xb4;" horiz-adv-x="375" 
d="M314 656l-180 -150l-74 38l150 160z" />
    <glyph glyph-name="mu" unicode="&#xb5;" horiz-adv-x="560" 
d="M199 460v-262q0 -45 17.5 -69.5t57.5 -24.5q41 0 66.5 25.5t25.5 68.5v262h130v-460h-130v56q-18 -27 -45 -44.5t-61 -17.5q-18 0 -35 4.5t-35 15.5v-334h-126v780h135z" />
    <glyph glyph-name="paragraph" unicode="&#xb6;" horiz-adv-x="643" 
d="M288 270q-62 0 -114 25t-83 73t-31 117q0 70 31 117.5t83 72.5t114 25h296v-920h-114v836h-68v-836h-114v490z" />
    <glyph glyph-name="periodcentered" unicode="&#xb7;" horiz-adv-x="315" 
d="M76 260q0 33 23 57t59 24t59 -24t23 -57t-23 -57.5t-59 -24.5t-59 24.5t-23 57.5z" />
    <glyph glyph-name="cedilla" unicode="&#xb8;" horiz-adv-x="380" 
d="M188 68l95 -2l-80 -120q6 2 14 2h15q19 0 39 -10t33.5 -29.5t13.5 -50.5q0 -34 -18.5 -57t-47.5 -35t-59 -12q-37 0 -66 8.5t-61 30.5l42 59q17 -13 36 -18.5t35 -5.5q53 0 53 36q0 20 -16.5 27t-40.5 7q-7 0 -29.5 -3t-45.5 -14z" />
    <glyph glyph-name="uni00B9" unicode="&#xb9;" horiz-adv-x="478" 
d="M138 584v78l186 40v-428h-84v336z" />
    <glyph glyph-name="ordmasculine" unicode="&#xba;" horiz-adv-x="278" 
d="M20 580q0 54 35.5 87t90.5 33q56 0 92.5 -33t36.5 -87t-36.5 -87t-92.5 -33q-55 0 -90.5 33t-35.5 87zM85 580q0 -30 18 -47t43 -17q26 0 44 17t18 47t-18 47.5t-44 17.5q-25 0 -43 -17.5t-18 -47.5z" />
    <glyph glyph-name="guillemotright" unicode="&#xbb;" horiz-adv-x="531" 
d="M198 251l-150 194l80 59l182 -249l-182 -249l-80 59zM389 251l-151 194l81 59l182 -249l-182 -249l-81 59z" />
    <glyph glyph-name="onequarter" unicode="&#xbc;" horiz-adv-x="801" 
d="M26 584v78l184 40v-428h-84v336zM626 700h88l-520 -700h-88zM770 78h-66v-78h-89v78h-211l241 342h59v-268h66v-74zM622 283l-99 -141h99v141z" />
    <glyph glyph-name="onehalf" unicode="&#xbd;" horiz-adv-x="871" 
d="M26 584v78l184 40v-428h-84v336zM626 700h88l-520 -700h-88zM502 2l190 200q24 26 38 47t14 46q0 23 -15 41.5t-47 18.5q-33 0 -53.5 -23.5t-20.5 -61.5h-84q0 45 18.5 81t54.5 57.5t87 21.5q50 0 83 -20.5t49 -51t16 -61.5q0 -33 -16.5 -61.5t-42.5 -52.5l-108 -101h175
v-80h-338z" />
    <glyph glyph-name="threequarters" unicode="&#xbe;" horiz-adv-x="861" 
d="M181 271q-48 0 -82.5 19t-53 50t-18.5 67h86q0 -31 21 -47.5t50 -16.5t47.5 14.5t18.5 44.5t-24 48t-69 18v58q36 0 58.5 18.5t22.5 43.5q0 23 -14 36t-40 13q-25 0 -41.5 -15.5t-16.5 -39.5h-81q0 54 38.5 90t101.5 36q66 0 102 -34.5t36 -81.5q0 -32 -19.5 -55.5
t-52.5 -36.5q38 -12 61 -38.5t23 -67.5q0 -54 -41.5 -88.5t-112.5 -34.5zM692 700h86l-520 -700h-86zM830 78h-66v-78h-88v78h-212l242 342h58v-268h66v-74zM684 283l-101 -141h101v141z" />
    <glyph glyph-name="questiondown" unicode="&#xbf;" horiz-adv-x="606" 
d="M408 646q0 -30 -23.5 -52t-59.5 -22t-59 22t-23 52t23 53t59 23t59.5 -23t23.5 -53zM187 200q0 -49 33 -76.5t90 -27.5q47 0 87.5 23t66.5 63l91 -72q-48 -58 -107 -92t-148 -34q-64 0 -120 26.5t-90 75t-34 114.5q0 60 31 105.5t79.5 73.5t102.5 35l6 94h103l20 -177
h-30q-60 0 -100.5 -20.5t-60.5 -51t-20 -59.5z" />
    <glyph glyph-name="Agrave" unicode="&#xc0;" horiz-adv-x="712" 
d="M204 952l104 48l150 -160l-74 -38zM549 0l-73 158h-240l-72 -158h-163l355 742l356 -742h-163zM356 472l-86 -200h172z" />
    <glyph glyph-name="Aacute" unicode="&#xc1;" horiz-adv-x="712" 
d="M506 952l-180 -150l-74 38l150 160zM549 0l-73 158h-240l-72 -158h-163l355 742l356 -742h-163zM356 472l-86 -200h172z" />
    <glyph glyph-name="Acircumflex" unicode="&#xc2;" horiz-adv-x="712" 
d="M356 868l-97 -89l-89 62l186 140l186 -140l-88 -62zM549 0l-73 158h-240l-72 -158h-163l355 742l356 -742h-163zM356 472l-86 -200h172z" />
    <glyph glyph-name="Atilde" unicode="&#xc3;" horiz-adv-x="712" 
d="M169 848q8 37 40 63.5t75 26.5q25 0 41 -7.5t29 -17.5t27.5 -17.5t35.5 -7.5q17 0 32.5 13.5t30.5 37.5l64 -65q-8 -18 -26.5 -37t-44.5 -32t-55 -13q-27 0 -48.5 13t-41.5 26t-44 13q-19 0 -29.5 -9.5t-14.5 -21.5t-4 -20zM549 0l-73 158h-240l-72 -158h-163l355 742
l356 -742h-163zM356 472l-86 -200h172z" />
    <glyph glyph-name="Adieresis" unicode="&#xc4;" horiz-adv-x="712" 
d="M145 840q0 32 23 53t56 21t55.5 -21t22.5 -53q0 -31 -22.5 -52.5t-55.5 -21.5t-56 21.5t-23 52.5zM406 836q0 32 22.5 53t55.5 21t55.5 -21t22.5 -53q0 -31 -22.5 -52.5t-55.5 -21.5t-55.5 21.5t-22.5 52.5zM549 0l-73 158h-240l-72 -158h-163l355 742l356 -742h-163z
M356 472l-86 -200h172z" />
    <glyph glyph-name="Aring" unicode="&#xc5;" horiz-adv-x="712" 
d="M238 800q0 50 35 80t83 30t83 -30t35 -80q0 -43 -27 -72t-67 -37l332 -691h-163l-73 158h-240l-72 -158h-163l331 691q-40 8 -67 37t-27 72zM308 800q0 -23 14.5 -36.5t33.5 -13.5t33.5 13.5t14.5 36.5t-14.5 36t-33.5 13t-33.5 -13t-14.5 -36zM356 472l-86 -200h172z
" />
    <glyph glyph-name="AE" unicode="&#xc6;" horiz-adv-x="1047" 
d="M978 122v-122h-446v168h-245l-97 -168h-178l425 700h541v-122h-294v-147h274v-119h-274v-190h294zM364 301h168v290z" />
    <glyph glyph-name="Ccedilla" unicode="&#xc7;" horiz-adv-x="695" 
d="M192 350q0 -69 31 -120t82 -78.5t111 -27.5q74 0 126.5 28t87.5 68v-162q-42 -34 -90.5 -52.5t-121.5 -19.5l-38 -56q6 2 13.5 2h14.5q19 0 39 -10t33.5 -29.5t13.5 -50.5q0 -34 -18 -57t-46.5 -35t-58.5 -12q-37 0 -67 8t-62 30l43 60q17 -13 36.5 -18.5t35.5 -5.5
q53 0 53 36q0 20 -17 27t-41 7q-7 0 -29.5 -3.5t-45.5 -14.5l59 128q-88 15 -156 63.5t-106 124t-38 170.5q0 81 28 148t78 115t118.5 74.5t149.5 26.5q77 0 127 -18.5t93 -53.5v-162q-35 41 -87.5 68.5t-126.5 27.5q-60 0 -111 -27.5t-82 -78t-31 -120.5z" />
    <glyph glyph-name="Egrave" unicode="&#xc8;" horiz-adv-x="587" 
d="M146 928l104 50l150 -160l-74 -40zM76 700h446v-122h-306v-147h286v-119h-286v-190h306v-122h-446v700z" />
    <glyph glyph-name="Eacute" unicode="&#xc9;" horiz-adv-x="587" 
d="M448 928l-180 -150l-73 40l150 160zM76 700h446v-122h-306v-147h286v-119h-286v-190h306v-122h-446v700z" />
    <glyph glyph-name="Ecircumflex" unicode="&#xca;" horiz-adv-x="587" 
d="M313 863l-97 -89l-90 62l187 140l186 -140l-89 -62zM76 700h446v-122h-306v-147h286v-119h-286v-190h306v-122h-446v700z" />
    <glyph glyph-name="Edieresis" unicode="&#xcb;" horiz-adv-x="587" 
d="M342 860q0 32 22.5 53t55.5 21t55.5 -21t22.5 -53q0 -31 -22.5 -52.5t-55.5 -21.5t-55.5 21.5t-22.5 52.5zM111 860q0 32 23 53t56 21t55.5 -21t22.5 -53q0 -31 -22.5 -52.5t-55.5 -21.5t-56 21.5t-23 52.5zM76 700h446v-122h-306v-147h286v-119h-286v-190h306v-122h-446
v700z" />
    <glyph glyph-name="Igrave" unicode="&#xcc;" horiz-adv-x="297" 
d="M-8 928l104 50l150 -160l-74 -40zM76 700h146v-700h-146v700z" />
    <glyph glyph-name="Iacute" unicode="&#xcd;" horiz-adv-x="297" 
d="M294 928l-180 -150l-72 40l150 160zM76 700h146v-700h-146v700z" />
    <glyph glyph-name="Icircumflex" unicode="&#xce;" horiz-adv-x="297" 
d="M148 863l-96 -89l-90 62l186 140l186 -140l-88 -62zM76 700h146v-700h-146v700z" />
    <glyph glyph-name="Idieresis" unicode="&#xcf;" horiz-adv-x="297" 
d="M186 848q0 32 22.5 53t55.5 21t55.5 -21t22.5 -53q0 -31 -22.5 -52.5t-55.5 -21.5t-55.5 21.5t-22.5 52.5zM-44 848q0 32 22 53t55 21t56 -21t23 -53q0 -31 -23 -52.5t-56 -21.5t-55 21.5t-22 52.5zM76 700h146v-700h-146v700z" />
    <glyph glyph-name="Eth" unicode="&#xd0;" horiz-adv-x="717" 
d="M6 304v93h70v303h238q111 0 193.5 -43t128.5 -121.5t46 -185.5q0 -106 -46 -185t-128.5 -122t-193.5 -43h-238v304h-70zM340 304h-116v-173h86q62 0 112.5 22.5t81 71t30.5 125.5t-30.5 125.5t-81 71t-112.5 22.5h-86v-172h116v-93z" />
    <glyph glyph-name="Ntilde" unicode="&#xd1;" horiz-adv-x="787" 
d="M184 820q8 37 40.5 64.5t75.5 27.5q25 0 41 -7.5t29 -17.5t27 -17.5t35 -7.5q17 0 32.5 13.5t30.5 37.5l63 -65q-8 -18 -26.5 -37t-44.5 -32t-55 -13q-27 0 -48.5 12.5t-41.5 25.5t-44 13q-19 0 -29.5 -9.5t-14.5 -21.5t-4 -20zM573 700h139v-735l-496 467v-432h-140v735
l497 -467v432z" />
    <glyph glyph-name="Ograve" unicode="&#xd2;" horiz-adv-x="811" 
d="M266 928l104 50l150 -160l-74 -40zM36 350q0 80 28 146.5t78.5 115t117.5 75.5t146 27q80 0 147 -27t117.5 -75.5t78 -115t27.5 -146.5q0 -79 -27.5 -146.5t-77 -117t-117 -77t-148.5 -27.5t-148.5 27.5t-117 77t-77 117t-27.5 146.5zM188 350q0 -67 27.5 -119t77 -81.5
t113.5 -29.5q65 0 114 29.5t76.5 81.5t27.5 119t-27 119t-76 81.5t-115 29.5q-64 0 -113.5 -29.5t-77 -81.5t-27.5 -119z" />
    <glyph glyph-name="Oacute" unicode="&#xd3;" horiz-adv-x="811" 
d="M556 928l-180 -150l-72 40l150 160zM36 350q0 80 28 146.5t78.5 115t117.5 75.5t146 27q80 0 147 -27t117.5 -75.5t78 -115t27.5 -146.5q0 -79 -27.5 -146.5t-77 -117t-117 -77t-148.5 -27.5t-148.5 27.5t-117 77t-77 117t-27.5 146.5zM188 350q0 -67 27.5 -119t77 -81.5
t113.5 -29.5q65 0 114 29.5t76.5 81.5t27.5 119t-27 119t-76 81.5t-115 29.5q-64 0 -113.5 -29.5t-77 -81.5t-27.5 -119z" />
    <glyph glyph-name="Ocircumflex" unicode="&#xd4;" horiz-adv-x="811" 
d="M410 863l-97 -89l-90 62l187 140l186 -140l-89 -62zM36 350q0 80 28 146.5t78.5 115t117.5 75.5t146 27q80 0 147 -27t117.5 -75.5t78 -115t27.5 -146.5q0 -79 -27.5 -146.5t-77 -117t-117 -77t-148.5 -27.5t-148.5 27.5t-117 77t-77 117t-27.5 146.5zM188 350
q0 -67 27.5 -119t77 -81.5t113.5 -29.5q65 0 114 29.5t76.5 81.5t27.5 119t-27 119t-76 81.5t-115 29.5q-64 0 -113.5 -29.5t-77 -81.5t-27.5 -119z" />
    <glyph glyph-name="Otilde" unicode="&#xd5;" horiz-adv-x="811" 
d="M236 820q8 37 40.5 64.5t75.5 27.5q25 0 41 -7.5t29 -17.5t27 -17.5t35 -7.5q17 0 32.5 13.5t30.5 37.5l63 -65q-8 -18 -26.5 -37t-44.5 -32t-55 -13q-27 0 -48.5 12.5t-41.5 25.5t-44 13q-19 0 -29.5 -9.5t-14.5 -21.5t-4 -20zM36 350q0 80 28 146.5t78.5 115
t117.5 75.5t146 27q80 0 147 -27t117.5 -75.5t78 -115t27.5 -146.5q0 -79 -27.5 -146.5t-77 -117t-117 -77t-148.5 -27.5t-148.5 27.5t-117 77t-77 117t-27.5 146.5zM188 350q0 -67 27.5 -119t77 -81.5t113.5 -29.5q65 0 114 29.5t76.5 81.5t27.5 119t-27 119t-76 81.5
t-115 29.5q-64 0 -113.5 -29.5t-77 -81.5t-27.5 -119z" />
    <glyph glyph-name="Odieresis" unicode="&#xd6;" horiz-adv-x="811" 
d="M443 848q0 32 22.5 53t55.5 21t56 -21t23 -53q0 -31 -23 -52.5t-56 -21.5t-55.5 21.5t-22.5 52.5zM212 848q0 32 23 53t56 21t55.5 -21t22.5 -53q0 -31 -22.5 -52.5t-55.5 -21.5t-56 21.5t-23 52.5zM36 350q0 80 28 146.5t78.5 115t117.5 75.5t146 27q80 0 147 -27
t117.5 -75.5t78 -115t27.5 -146.5q0 -79 -27.5 -146.5t-77 -117t-117 -77t-148.5 -27.5t-148.5 27.5t-117 77t-77 117t-27.5 146.5zM188 350q0 -67 27.5 -119t77 -81.5t113.5 -29.5q65 0 114 29.5t76.5 81.5t27.5 119t-27 119t-76 81.5t-115 29.5q-64 0 -113.5 -29.5
t-77 -81.5t-27.5 -119z" />
    <glyph glyph-name="multiply" unicode="&#xd7;" horiz-adv-x="596" 
d="M134 8l-82 84l168 163l-168 163l82 84l164 -170l164 170l82 -84l-168 -163l168 -163l-82 -84l-164 170z" />
    <glyph glyph-name="Oslash" unicode="&#xd8;" horiz-adv-x="790" 
d="M36 350q0 80 27.5 146.5t78 115t118 75.5t146.5 27q58 0 110 -14.5t96 -41.5l82 96l68 -48l-86 -100q47 -48 73.5 -113.5t26.5 -142.5q0 -79 -27.5 -146.5t-78 -117t-117.5 -77t-147 -27.5q-60 0 -113 15.5t-97 44.5l-82 -96l-68 48l87 102q-46 48 -71.5 113t-25.5 141z
M188 350q0 -82 41 -142l291 342q-50 30 -114 30t-113.5 -29t-77 -81t-27.5 -120zM624 350q0 84 -43 144l-292 -343q51 -31 117 -31q65 0 114 29t76.5 81t27.5 120z" />
    <glyph glyph-name="Ugrave" unicode="&#xd9;" horiz-adv-x="678" 
d="M187 924l104 50l150 -160l-74 -40zM71 700h143v-462q0 -58 32 -94.5t93 -36.5q62 0 93.5 36.5t31.5 94.5v462h144v-470q0 -82 -35 -139t-96 -86t-138 -29t-137.5 29t-95.5 86t-35 139v470z" />
    <glyph glyph-name="Uacute" unicode="&#xda;" horiz-adv-x="678" 
d="M492 924l-180 -150l-74 40l150 160zM71 700h143v-462q0 -58 32 -94.5t93 -36.5q62 0 93.5 36.5t31.5 94.5v462h144v-470q0 -82 -35 -139t-96 -86t-138 -29t-137.5 29t-95.5 86t-35 139v470z" />
    <glyph glyph-name="Ucircumflex" unicode="&#xdb;" horiz-adv-x="678" 
d="M339 863l-97 -89l-89 62l186 140l187 -140l-90 -62zM71 700h143v-462q0 -58 32 -94.5t93 -36.5q62 0 93.5 36.5t31.5 94.5v462h144v-470q0 -82 -35 -139t-96 -86t-138 -29t-137.5 29t-95.5 86t-35 139v470z" />
    <glyph glyph-name="Udieresis" unicode="&#xdc;" horiz-adv-x="678" 
d="M390 848q0 32 22.5 53t55.5 21t55.5 -21t22.5 -53q0 -31 -22.5 -52.5t-55.5 -21.5t-55.5 21.5t-22.5 52.5zM133 848q0 32 22.5 53t55.5 21t55.5 -21t22.5 -53q0 -31 -22.5 -52.5t-55.5 -21.5t-55.5 21.5t-22.5 52.5zM71 700h143v-462q0 -58 32 -94.5t93 -36.5
q62 0 93.5 36.5t31.5 94.5v462h144v-470q0 -82 -35 -139t-96 -86t-138 -29t-137.5 29t-95.5 86t-35 139v470z" />
    <glyph glyph-name="Yacute" unicode="&#xdd;" horiz-adv-x="630" 
d="M466 924l-180 -150l-72 40l150 160zM465 700h165l-241 -410v-290h-147v289l-241 411h165l149 -282z" />
    <glyph glyph-name="Thorn" unicode="&#xde;" horiz-adv-x="593" 
d="M80 700h129v-126h89q125 0 193.5 -59t68.5 -163q0 -103 -68.5 -161.5t-193.5 -58.5h-89v-132h-129v700zM298 456h-89v-208h89q61 0 96.5 25t35.5 79t-35.5 79t-96.5 25z" />
    <glyph glyph-name="germandbls" unicode="&#xdf;" horiz-adv-x="591" 
d="M364 -12q-42 0 -79.5 13.5t-63.5 34.5l37 100q21 -18 47 -29t51 -11q41 0 66.5 26.5t25.5 63.5q0 31 -16 51.5t-39.5 36t-47 31.5t-39.5 36t-16 50t15 53t34 45t34 48t15 61q0 44 -27.5 63t-68.5 19q-49 0 -78.5 -28t-29.5 -90l1 -564h-131v571q0 107 65 167t180 60
q63 0 113.5 -20t80 -59t29.5 -97q0 -48 -14 -79t-32.5 -53t-32.5 -41.5t-14 -44.5q0 -20 15.5 -34t38.5 -28t46.5 -32.5t39 -46.5t15.5 -71q0 -56 -31 -102t-81 -73t-108 -27z" />
    <glyph glyph-name="agrave" unicode="&#xe0;" horiz-adv-x="526" 
d="M99 682l103 49l150 -160l-73 -39zM115 328l-47 90q36 19 87 36.5t113 17.5q89 0 146 -38t57 -108v-326h-126v66q-20 -37 -61.5 -56.5t-93.5 -19.5q-74 0 -119 36.5t-45 100.5q0 74 56 114t142 40q36 0 67.5 -9t53.5 -21v54q0 31 -24 48t-62 17q-49 0 -88 -15.5t-56 -26.5
zM157 137q0 -28 20 -42.5t55 -14.5q47 0 80 23t33 81v1q-21 10 -43.5 15.5t-51.5 5.5q-45 0 -69 -18.5t-24 -50.5z" />
    <glyph glyph-name="aacute" unicode="&#xe1;" horiz-adv-x="526" 
d="M436 682l-180 -150l-73 39l150 160zM115 328l-47 90q36 19 87 36.5t113 17.5q89 0 146 -38t57 -108v-326h-126v66q-20 -37 -61.5 -56.5t-93.5 -19.5q-74 0 -119 36.5t-45 100.5q0 74 56 114t142 40q36 0 67.5 -9t53.5 -21v54q0 31 -24 48t-62 17q-49 0 -88 -15.5
t-56 -26.5zM157 137q0 -28 20 -42.5t55 -14.5q47 0 80 23t33 81v1q-21 10 -43.5 15.5t-51.5 5.5q-45 0 -69 -18.5t-24 -50.5z" />
    <glyph glyph-name="acircumflex" unicode="&#xe2;" horiz-adv-x="526" 
d="M268 621l-97 -89l-89 62l186 140l186 -140l-90 -62zM115 328l-47 90q36 19 87 36.5t113 17.5q89 0 146 -38t57 -108v-326h-126v66q-20 -37 -61.5 -56.5t-93.5 -19.5q-74 0 -119 36.5t-45 100.5q0 74 56 114t142 40q36 0 67.5 -9t53.5 -21v54q0 31 -24 48t-62 17
q-49 0 -88 -15.5t-56 -26.5zM157 137q0 -28 20 -42.5t55 -14.5q47 0 80 23t33 81v1q-21 10 -43.5 15.5t-51.5 5.5q-45 0 -69 -18.5t-24 -50.5z" />
    <glyph glyph-name="atilde" unicode="&#xe3;" horiz-adv-x="526" 
d="M81 590q8 37 40 63.5t75 26.5q25 0 41 -7.5t29 -17.5t27 -17.5t35 -7.5q17 0 32.5 13.5t30.5 37.5l63 -65q-8 -18 -26.5 -37t-44.5 -32t-55 -13q-27 0 -48.5 13t-41.5 26t-44 13q-19 0 -29.5 -9.5t-14 -21.5t-3.5 -20zM115 328l-47 90q36 19 87 36.5t113 17.5
q89 0 146 -38t57 -108v-326h-126v66q-20 -37 -61.5 -56.5t-93.5 -19.5q-74 0 -119 36.5t-45 100.5q0 74 56 114t142 40q36 0 67.5 -9t53.5 -21v54q0 31 -24 48t-62 17q-49 0 -88 -15.5t-56 -26.5zM157 137q0 -28 20 -42.5t55 -14.5q47 0 80 23t33 81v1q-21 10 -43.5 15.5
t-51.5 5.5q-45 0 -69 -18.5t-24 -50.5z" />
    <glyph glyph-name="adieresis" unicode="&#xe4;" horiz-adv-x="526" 
d="M305 606q0 32 22.5 53t55.5 21t55.5 -21t22.5 -53q0 -31 -22.5 -52.5t-55.5 -21.5t-55.5 21.5t-22.5 52.5zM74 606q0 32 22.5 53t55.5 21t55.5 -21t22.5 -53q0 -31 -22.5 -52.5t-55.5 -21.5t-55.5 21.5t-22.5 52.5zM115 328l-47 90q36 19 87 36.5t113 17.5q89 0 146 -38
t57 -108v-326h-126v66q-20 -37 -61.5 -56.5t-93.5 -19.5q-74 0 -119 36.5t-45 100.5q0 74 56 114t142 40q36 0 67.5 -9t53.5 -21v54q0 31 -24 48t-62 17q-49 0 -88 -15.5t-56 -26.5zM157 137q0 -28 20 -42.5t55 -14.5q47 0 80 23t33 81v1q-21 10 -43.5 15.5t-51.5 5.5
q-45 0 -69 -18.5t-24 -50.5z" />
    <glyph glyph-name="aring" unicode="&#xe5;" horiz-adv-x="526" 
d="M150 644q0 50 35 80t83 30t83 -30t35 -80q0 -49 -35 -80.5t-83 -31.5t-83 31.5t-35 80.5zM220 644q0 -23 14.5 -36.5t33.5 -13.5t33 13.5t14 36.5t-14 36t-33 13t-33.5 -13t-14.5 -36zM115 328l-47 90q36 19 87 36.5t113 17.5q89 0 146 -38t57 -108v-326h-126v66
q-20 -37 -61.5 -56.5t-93.5 -19.5q-74 0 -119 36.5t-45 100.5q0 74 56 114t142 40q36 0 67.5 -9t53.5 -21v54q0 31 -24 48t-62 17q-49 0 -88 -15.5t-56 -26.5zM157 137q0 -28 20 -42.5t55 -14.5q47 0 80 23t33 81v1q-21 10 -43.5 15.5t-51.5 5.5q-45 0 -69 -18.5t-24 -50.5z
" />
    <glyph glyph-name="ae" unicode="&#xe6;" horiz-adv-x="874" 
d="M214 -10q-88 0 -138 36.5t-50 100.5q0 69 55 111.5t143 42.5q30 0 58.5 -5.5t62.5 -19.5v32q0 82 -86 82q-33 0 -74 -12t-70 -30l-47 90q102 54 200 54q135 0 157 -99q31 47 81 72t114 25q102 0 161 -63t59 -171q0 -22 -2 -34h-353q12 -113 117 -113q82 0 122 67l114 -36
q-75 -130 -238 -130q-138 0 -191 100q-17 -48 -68.5 -74t-126.5 -26zM598 378q-44 0 -73.5 -25t-38.5 -72h215q-4 46 -31 71.5t-72 25.5zM232 80q97 0 115 86l-2 19q-43 21 -95 21q-93 0 -93 -69q0 -57 75 -57z" />
    <glyph glyph-name="ccedilla" unicode="&#xe7;" horiz-adv-x="488" 
d="M164 230q0 -60 38.5 -96.5t93.5 -36.5q45 0 84.5 20t58.5 53v-133q-49 -46 -146 -47l-34 -52q6 2 14 3t15 1q19 0 38.5 -10.5t33 -30.5t13.5 -51q0 -34 -18 -57t-46.5 -35t-58.5 -12q-37 0 -66.5 8.5t-61.5 30.5l42 60q17 -13 36.5 -19t35.5 -6q52 0 52 37q0 20 -16 26.5
t-40 6.5q-7 0 -30 -2.5t-46 -13.5l59 124q-82 20 -133.5 81.5t-51.5 150.5q0 72 33.5 126t92 84t132.5 30q50 0 88.5 -13t62.5 -33v-134q-19 33 -60 53t-83 20q-37 0 -67 -17.5t-47.5 -47.5t-17.5 -68z" />
    <glyph glyph-name="egrave" unicode="&#xe8;" horiz-adv-x="555" 
d="M125 686l104 49l150 -160l-74 -39zM520 120q-34 -58 -88 -94t-150 -36q-78 0 -133.5 31t-85.5 85.5t-30 123.5q0 13 1 25t3 24q14 85 77 138t168 53q114 0 177 -62.5t63 -171.5v-14.5t-2 -19.5h-355q7 -59 39 -86t78 -27q44 0 75 18t49 49zM280 378q-44 0 -74.5 -25
t-37.5 -72h214q-6 45 -30.5 71t-71.5 26z" />
    <glyph glyph-name="eacute" unicode="&#xe9;" horiz-adv-x="555" 
d="M452 686l-180 -150l-74 39l150 160zM520 120q-34 -58 -88 -94t-150 -36q-78 0 -133.5 31t-85.5 85.5t-30 123.5q0 13 1 25t3 24q14 85 77 138t168 53q114 0 177 -62.5t63 -171.5v-14.5t-2 -19.5h-355q7 -59 39 -86t78 -27q44 0 75 18t49 49zM280 378q-44 0 -74.5 -25
t-37.5 -72h214q-6 45 -30.5 71t-71.5 26z" />
    <glyph glyph-name="ecircumflex" unicode="&#xea;" horiz-adv-x="555" 
d="M282 618l-96 -88l-90 62l186 140l187 -140l-89 -62zM520 120q-34 -58 -88 -94t-150 -36q-78 0 -133.5 31t-85.5 85.5t-30 123.5q0 13 1 25t3 24q14 85 77 138t168 53q114 0 177 -62.5t63 -171.5v-14.5t-2 -19.5h-355q7 -59 39 -86t78 -27q44 0 75 18t49 49zM280 378
q-44 0 -74.5 -25t-37.5 -72h214q-6 45 -30.5 71t-71.5 26z" />
    <glyph glyph-name="edieresis" unicode="&#xeb;" horiz-adv-x="555" 
d="M320 604q0 32 22.5 53t55.5 21t55.5 -21t22.5 -53q0 -31 -22.5 -52.5t-55.5 -21.5t-55.5 21.5t-22.5 52.5zM89 604q0 32 22.5 53t55.5 21t56 -21t23 -53q0 -31 -23 -52.5t-56 -21.5t-55.5 21.5t-22.5 52.5zM520 120q-34 -58 -88 -94t-150 -36q-78 0 -133.5 31t-85.5 85.5
t-30 123.5q0 13 1 25t3 24q14 85 77 138t168 53q114 0 177 -62.5t63 -171.5v-14.5t-2 -19.5h-355q7 -59 39 -86t78 -27q44 0 75 18t49 49zM280 378q-44 0 -74.5 -25t-37.5 -72h214q-6 45 -30.5 71t-71.5 26z" />
    <glyph glyph-name="igrave" unicode="&#xec;" horiz-adv-x="271" 
d="M-38 692l102 48l150 -160l-72 -38zM72 460h126v-460h-126v460z" />
    <glyph glyph-name="iacute" unicode="&#xed;" horiz-adv-x="271" 
d="M304 692l-180 -150l-74 38l150 160zM72 460h126v-460h-126v460z" />
    <glyph glyph-name="icircumflex" unicode="&#xee;" horiz-adv-x="271" 
d="M136 624l-98 -88l-89 62l187 140l186 -140l-90 -62zM72 460h126v-460h-126v460z" />
    <glyph glyph-name="idieresis" unicode="&#xef;" horiz-adv-x="271" 
d="M173 622q0 32 22.5 52.5t55.5 20.5t55.5 -20.5t22.5 -52.5q0 -31 -22.5 -52.5t-55.5 -21.5t-55.5 21.5t-22.5 52.5zM-58 622q0 32 22.5 52.5t55.5 20.5t55.5 -20.5t22.5 -52.5q0 -31 -22.5 -52.5t-55.5 -21.5t-55.5 21.5t-22.5 52.5zM72 460h126v-460h-126v460z" />
    <glyph glyph-name="eth" unicode="&#xf0;" horiz-adv-x="611" 
d="M304 -14q-74 0 -131.5 32.5t-90 90.5t-32.5 132q0 67 26.5 118t74 80t109.5 29q66 0 127 -37q-40 61 -94 118l-129 -43l-16 52l102 35q-45 43 -101 87l93 70q67 -62 119 -120l115 39l16 -53l-92 -31q162 -193 162 -344q0 -74 -33.5 -131.5t-91.5 -90.5t-133 -33zM306 102
q54 0 88 36.5t34 91.5q0 57 -34.5 93.5t-87.5 36.5q-52 0 -87 -36.5t-35 -93.5q0 -55 34 -91.5t88 -36.5z" />
    <glyph glyph-name="ntilde" unicode="&#xf1;" horiz-adv-x="560" 
d="M94 588q8 37 39.5 63.5t74.5 26.5q25 0 41 -7.5t29 -17.5t27 -17.5t35 -7.5q17 0 33 14t31 38l63 -66q-8 -18 -26.5 -37t-44 -32t-54.5 -13q-27 0 -48.5 13t-41.5 26t-44 13q-19 0 -29.5 -9.5t-14.5 -21.5t-4 -20zM362 280q0 45 -17.5 69.5t-58.5 24.5q-40 0 -66 -25
t-26 -69v-280h-130v460h130v-66q22 35 57 55.5t83 20.5q81 0 121.5 -45t40.5 -131v-294h-134v280z" />
    <glyph glyph-name="ograve" unicode="&#xf2;" horiz-adv-x="576" 
d="M128 692l104 48l150 -160l-74 -38zM33 230q0 72 33.5 126t91 84t130.5 30t131 -30t91.5 -84t33.5 -126q0 -71 -33.5 -125.5t-91.5 -84.5t-131 -30t-130.5 30t-91 84.5t-33.5 125.5zM166 230q0 -58 35.5 -94t86.5 -36t86.5 36t35.5 94q0 59 -35.5 94.5t-86.5 35.5
t-86.5 -35.5t-35.5 -94.5z" />
    <glyph glyph-name="oacute" unicode="&#xf3;" horiz-adv-x="576" 
d="M448 692l-180 -150l-74 38l150 160zM33 230q0 72 33.5 126t91 84t130.5 30t131 -30t91.5 -84t33.5 -126q0 -71 -33.5 -125.5t-91.5 -84.5t-131 -30t-130.5 30t-91 84.5t-33.5 125.5zM166 230q0 -58 35.5 -94t86.5 -36t86.5 36t35.5 94q0 59 -35.5 94.5t-86.5 35.5
t-86.5 -35.5t-35.5 -94.5z" />
    <glyph glyph-name="ocircumflex" unicode="&#xf4;" horiz-adv-x="576" 
d="M288 630l-96 -88l-90 62l186 140l186 -140l-89 -62zM33 230q0 72 33.5 126t91 84t130.5 30t131 -30t91.5 -84t33.5 -126q0 -71 -33.5 -125.5t-91.5 -84.5t-131 -30t-130.5 30t-91 84.5t-33.5 125.5zM166 230q0 -58 35.5 -94t86.5 -36t86.5 36t35.5 94q0 59 -35.5 94.5
t-86.5 35.5t-86.5 -35.5t-35.5 -94.5z" />
    <glyph glyph-name="otilde" unicode="&#xf5;" horiz-adv-x="576" 
d="M102 588q8 37 39.5 63.5t74.5 26.5q25 0 41.5 -7.5t29.5 -17.5t27.5 -17.5t35.5 -7.5q17 0 32 14t30 38l63 -66q-8 -18 -26.5 -37t-44 -32t-54.5 -13q-27 0 -48.5 13t-42 26t-44.5 13q-19 0 -29.5 -9.5t-14 -21.5t-3.5 -20zM33 230q0 72 33.5 126t91 84t130.5 30t131 -30
t91.5 -84t33.5 -126q0 -71 -33.5 -125.5t-91.5 -84.5t-131 -30t-130.5 30t-91 84.5t-33.5 125.5zM166 230q0 -58 35.5 -94t86.5 -36t86.5 36t35.5 94q0 59 -35.5 94.5t-86.5 35.5t-86.5 -35.5t-35.5 -94.5z" />
    <glyph glyph-name="odieresis" unicode="&#xf6;" horiz-adv-x="576" 
d="M326 622q0 32 22.5 52.5t55.5 20.5t55.5 -20.5t22.5 -52.5q0 -31 -22.5 -52.5t-55.5 -21.5t-55.5 21.5t-22.5 52.5zM95 622q0 32 22.5 52.5t55.5 20.5t55.5 -20.5t22.5 -52.5q0 -31 -22.5 -52.5t-55.5 -21.5t-55.5 21.5t-22.5 52.5zM33 230q0 72 33.5 126t91 84t130.5 30
t131 -30t91.5 -84t33.5 -126q0 -71 -33.5 -125.5t-91.5 -84.5t-131 -30t-130.5 30t-91 84.5t-33.5 125.5zM166 230q0 -58 35.5 -94t86.5 -36t86.5 36t35.5 94q0 59 -35.5 94.5t-86.5 35.5t-86.5 -35.5t-35.5 -94.5z" />
    <glyph glyph-name="divide" unicode="&#xf7;" horiz-adv-x="634" 
d="M234 522q0 33 23 57.5t59 24.5t60 -24.5t24 -57.5t-24 -57t-60 -24t-59 24t-23 57zM36 249v119h561v-119h-561zM234 90q0 33 23 57t59 24t60 -24t24 -57t-24 -57.5t-60 -24.5t-59 24.5t-23 57.5z" />
    <glyph glyph-name="oslash" unicode="&#xf8;" horiz-adv-x="546" 
d="M33 230q0 74 34 128t91.5 83t129.5 29q65 0 120 -24l43 58l53 -28l-45 -61q39 -31 62 -78t23 -107q0 -74 -34 -128t-92 -83t-130 -29q-69 0 -126 27l-48 -65l-53 28l52 69q-37 31 -58.5 77t-21.5 104zM158 230q0 -49 26 -84l155 208q-24 10 -51 10q-36 0 -65.5 -17
t-47 -47.5t-17.5 -69.5zM419 230q0 26 -8.5 49t-23.5 40l-157 -211q27 -12 58 -12q54 0 92.5 36.5t38.5 97.5z" />
    <glyph glyph-name="ugrave" unicode="&#xf9;" horiz-adv-x="560" 
d="M142 692l104 48l150 -160l-74 -38zM199 180q0 -45 17.5 -69.5t57.5 -24.5q41 0 66.5 25.5t25.5 68.5v280h130v-460h-130v64q-22 -34 -57.5 -54t-82.5 -20q-81 0 -121.5 45t-40.5 131v294h135v-280z" />
    <glyph glyph-name="uacute" unicode="&#xfa;" horiz-adv-x="560" 
d="M417 692l-180 -150l-73 38l150 160zM199 180q0 -45 17.5 -69.5t57.5 -24.5q41 0 66.5 25.5t25.5 68.5v280h130v-460h-130v64q-22 -34 -57.5 -54t-82.5 -20q-81 0 -121.5 45t-40.5 131v294h135v-280z" />
    <glyph glyph-name="ucircumflex" unicode="&#xfb;" horiz-adv-x="560" 
d="M280 630l-97 -88l-89 62l186 140l186 -140l-90 -62zM199 180q0 -45 17.5 -69.5t57.5 -24.5q41 0 66.5 25.5t25.5 68.5v280h130v-460h-130v64q-22 -34 -57.5 -54t-82.5 -20q-81 0 -121.5 45t-40.5 131v294h135v-280z" />
    <glyph glyph-name="udieresis" unicode="&#xfc;" horiz-adv-x="560" 
d="M318 616q0 32 22.5 53t55.5 21t55.5 -21t22.5 -53q0 -31 -22.5 -52.5t-55.5 -21.5t-55.5 21.5t-22.5 52.5zM87 616q0 32 22.5 53t55.5 21t55.5 -21t22.5 -53q0 -31 -22.5 -52.5t-55.5 -21.5t-55.5 21.5t-22.5 52.5zM199 180q0 -45 17.5 -69.5t57.5 -24.5q41 0 66.5 25.5
t25.5 68.5v280h130v-460h-130v64q-22 -34 -57.5 -54t-82.5 -20q-81 0 -121.5 45t-40.5 131v294h135v-280z" />
    <glyph glyph-name="yacute" unicode="&#xfd;" horiz-adv-x="496" 
d="M400 692l-180 -150l-74 38l150 160zM504 460l-300 -680h-134l116 266l-192 414h145l115 -285l114 285h136z" />
    <glyph glyph-name="thorn" unicode="&#xfe;" 
d="M192 -220h-130v1000h130v-393q55 83 156 83q58 0 108.5 -28t82 -81.5t31.5 -130.5q0 -76 -31.5 -130t-82 -82t-108.5 -28q-101 0 -156 84v-294zM434 230q0 62 -36.5 97t-87.5 35q-28 0 -55 -15.5t-45 -45t-18 -71.5t18 -71.5t45 -45t55 -15.5q51 0 87.5 35.5t36.5 96.5z
" />
    <glyph glyph-name="ydieresis" unicode="&#xff;" horiz-adv-x="496" 
d="M286 604q0 32 22.5 53t55.5 21t55.5 -21t22.5 -53q0 -31 -22.5 -52.5t-55.5 -21.5t-55.5 21.5t-22.5 52.5zM55 604q0 32 23 53t56 21t55.5 -21t22.5 -53q0 -31 -22.5 -52.5t-55.5 -21.5t-56 21.5t-23 52.5zM504 460l-300 -680h-134l116 266l-192 414h145l115 -285
l114 285h136z" />
    <glyph glyph-name="Amacron" unicode="&#x100;" horiz-adv-x="712" 
d="M174 802v114h364v-114h-364zM549 0l-73 158h-240l-72 -158h-163l355 742l356 -742h-163zM356 472l-86 -200h172z" />
    <glyph glyph-name="amacron" unicode="&#x101;" horiz-adv-x="526" 
d="M85 544v114h365v-114h-365zM115 328l-47 90q36 19 87 36.5t113 17.5q89 0 146 -38t57 -108v-326h-126v66q-20 -37 -61.5 -56.5t-93.5 -19.5q-74 0 -119 36.5t-45 100.5q0 74 56 114t142 40q36 0 67.5 -9t53.5 -21v54q0 31 -24 48t-62 17q-49 0 -88 -15.5t-56 -26.5z
M157 137q0 -28 20 -42.5t55 -14.5q47 0 80 23t33 81v1q-21 10 -43.5 15.5t-51.5 5.5q-45 0 -69 -18.5t-24 -50.5z" />
    <glyph glyph-name="Abreve" unicode="&#x102;" horiz-adv-x="712" 
d="M194 946h90q0 -24 18 -44t54 -20t54 20t18 44h91q0 -39 -19 -71.5t-55 -52.5t-89 -20q-52 0 -88.5 20t-55 52.5t-18.5 71.5zM549 0l-73 158h-240l-72 -158h-163l355 742l356 -742h-163zM356 472l-86 -200h172z" />
    <glyph glyph-name="abreve" unicode="&#x103;" horiz-adv-x="526" 
d="M106 676h90q0 -24 18 -44t54 -20t53.5 20t17.5 44h91q0 -39 -18.5 -71.5t-54.5 -52.5t-89 -20q-52 0 -88.5 20t-55 52.5t-18.5 71.5zM115 328l-47 90q36 19 87 36.5t113 17.5q89 0 146 -38t57 -108v-326h-126v66q-20 -37 -61.5 -56.5t-93.5 -19.5q-74 0 -119 36.5
t-45 100.5q0 74 56 114t142 40q36 0 67.5 -9t53.5 -21v54q0 31 -24 48t-62 17q-49 0 -88 -15.5t-56 -26.5zM157 137q0 -28 20 -42.5t55 -14.5q47 0 80 23t33 81v1q-21 10 -43.5 15.5t-51.5 5.5q-45 0 -69 -18.5t-24 -50.5z" />
    <glyph glyph-name="Aogonek" unicode="&#x104;" horiz-adv-x="712" 
d="M682 -116l32 -64q-11 -15 -34 -27.5t-62 -12.5q-52 0 -85 26.5t-33 73.5q0 37 26.5 66.5t65.5 53.5h-43l-73 158h-240l-72 -158h-163l355 742l356 -742h-36q-39 -19 -61 -45t-22 -51q0 -40 39 -40q17 0 28.5 5t21.5 15zM356 472l-86 -200h172z" />
    <glyph glyph-name="aogonek" unicode="&#x105;" horiz-adv-x="526" 
d="M115 328l-47 90q36 19 87 36.5t113 17.5q89 0 146 -38t57 -108v-326h-22q-39 -19 -61.5 -45t-22.5 -51q0 -40 39 -40q17 0 28.5 5t21.5 15l33 -64q-11 -15 -34.5 -27.5t-62.5 -12.5q-52 0 -85 26.5t-33 73.5q0 37 26.5 66.5t65.5 53.5h-19v66q-20 -37 -61.5 -56.5
t-93.5 -19.5q-70 0 -117 36.5t-47 105.5q0 70 53.5 109.5t144.5 39.5q36 0 67.5 -9t53.5 -21v54q0 31 -24 48t-62 17q-49 0 -88 -15.5t-56 -26.5zM157 137q0 -28 22 -42.5t53 -14.5q47 0 80 23t33 81v1q-21 10 -43.5 15.5t-51.5 5.5q-45 0 -69 -18.5t-24 -50.5z" />
    <glyph glyph-name="Cacute" unicode="&#x106;" horiz-adv-x="695" 
d="M540 924l-180 -150l-74 40l150 160zM192 350q0 -69 31 -120t82 -78.5t111 -27.5q74 0 126.5 28t87.5 68v-162q-43 -34 -93 -53t-127 -19q-81 0 -149.5 26.5t-118.5 74.5t-78 115t-28 148t28 148t78 115t118.5 74.5t149.5 26.5q77 0 127 -18.5t93 -53.5v-162
q-35 41 -87.5 68.5t-126.5 27.5q-60 0 -111 -27.5t-82 -78t-31 -120.5z" />
    <glyph glyph-name="cacute" unicode="&#x107;" horiz-adv-x="488" 
d="M418 680l-180 -150l-74 39l150 160zM164 230q0 -60 38.5 -96.5t93.5 -36.5q45 0 84.5 20t58.5 53v-133q-50 -47 -151 -47q-74 0 -132.5 30t-92 84.5t-33.5 125.5q0 72 33.5 126t92 84t132.5 30q50 0 88.5 -13t62.5 -33v-134q-19 33 -60 53t-83 20q-37 0 -67 -17.5
t-47.5 -47.5t-17.5 -68z" />
    <glyph glyph-name="Ccircumflex" unicode="&#x108;" horiz-adv-x="695" 
d="M410 863l-97 -89l-89 62l186 140l186 -140l-90 -62zM192 350q0 -69 31 -120t82 -78.5t111 -27.5q74 0 126.5 28t87.5 68v-162q-43 -34 -93 -53t-127 -19q-81 0 -149.5 26.5t-118.5 74.5t-78 115t-28 148t28 148t78 115t118.5 74.5t149.5 26.5q77 0 127 -18.5t93 -53.5
v-162q-35 41 -87.5 68.5t-126.5 27.5q-60 0 -111 -27.5t-82 -78t-31 -120.5z" />
    <glyph glyph-name="ccircumflex" unicode="&#x109;" horiz-adv-x="488" 
d="M266 618l-97 -88l-89 62l186 140l186 -140l-90 -62zM164 230q0 -60 38.5 -96.5t93.5 -36.5q45 0 84.5 20t58.5 53v-133q-50 -47 -151 -47q-74 0 -132.5 30t-92 84.5t-33.5 125.5q0 72 33.5 126t92 84t132.5 30q50 0 88.5 -13t62.5 -33v-134q-19 33 -60 53t-83 20
q-37 0 -67 -17.5t-47.5 -47.5t-17.5 -68z" />
    <glyph glyph-name="Cdotaccent" unicode="&#x10a;" horiz-adv-x="695" 
d="M314 848q0 32 22.5 53t55.5 21t55.5 -21t22.5 -53q0 -31 -22.5 -52.5t-55.5 -21.5t-55.5 21.5t-22.5 52.5zM192 350q0 -69 31 -120t82 -78.5t111 -27.5q74 0 126.5 28t87.5 68v-162q-43 -34 -93 -53t-127 -19q-81 0 -149.5 26.5t-118.5 74.5t-78 115t-28 148t28 148
t78 115t118.5 74.5t149.5 26.5q77 0 127 -18.5t93 -53.5v-162q-35 41 -87.5 68.5t-126.5 27.5q-60 0 -111 -27.5t-82 -78t-31 -120.5z" />
    <glyph glyph-name="cdotaccent" unicode="&#x10b;" horiz-adv-x="488" 
d="M192 609q0 32 22.5 52.5t55.5 20.5t55.5 -20.5t22.5 -52.5q0 -31 -22.5 -52.5t-55.5 -21.5t-55.5 21.5t-22.5 52.5zM164 230q0 -60 38.5 -96.5t93.5 -36.5q45 0 84.5 20t58.5 53v-133q-50 -47 -151 -47q-74 0 -132.5 30t-92 84.5t-33.5 125.5q0 72 33.5 126t92 84
t132.5 30q50 0 88.5 -13t62.5 -33v-134q-19 33 -60 53t-83 20q-37 0 -67 -17.5t-47.5 -47.5t-17.5 -68z" />
    <glyph glyph-name="Ccaron" unicode="&#x10c;" horiz-adv-x="695" 
d="M410 888l96 88l90 -62l-186 -140l-186 140l89 62zM192 350q0 -69 31 -120t82 -78.5t111 -27.5q74 0 126.5 28t87.5 68v-162q-43 -34 -93 -53t-127 -19q-81 0 -149.5 26.5t-118.5 74.5t-78 115t-28 148t28 148t78 115t118.5 74.5t149.5 26.5q77 0 127 -18.5t93 -53.5v-162
q-35 41 -87.5 68.5t-126.5 27.5q-60 0 -111 -27.5t-82 -78t-31 -120.5z" />
    <glyph glyph-name="ccaron" unicode="&#x10d;" horiz-adv-x="488" 
d="M266 644l96 88l90 -62l-186 -140l-186 140l89 62zM164 230q0 -60 38.5 -96.5t93.5 -36.5q45 0 84.5 20t58.5 53v-133q-50 -47 -151 -47q-74 0 -132.5 30t-92 84.5t-33.5 125.5q0 72 33.5 126t92 84t132.5 30q50 0 88.5 -13t62.5 -33v-134q-19 33 -60 53t-83 20
q-37 0 -67 -17.5t-47.5 -47.5t-17.5 -68z" />
    <glyph glyph-name="Dcaron" unicode="&#x10e;" horiz-adv-x="717" 
d="M362 888l97 88l89 -62l-186 -140l-186 140l89 62zM314 0h-238v700h238q111 0 193.5 -43t128.5 -121.5t46 -185.5q0 -106 -46 -185t-128.5 -122t-193.5 -43zM310 569h-86v-438h86q62 0 112.5 22.5t81 71t30.5 125.5t-30.5 125.5t-81 71t-112.5 22.5z" />
    <glyph glyph-name="dcaron" unicode="&#x10f;" 
d="M33 230q0 77 31 130.5t81.5 81.5t108.5 28q103 0 158 -86v396h130v-780h-130v76q-55 -86 -158 -86q-58 0 -108.5 28t-81.5 82t-31 130zM660 780l130 -32l-121 -250l-97 23zM168 230q0 -61 36.5 -96.5t87.5 -35.5q28 0 55.5 15.5t46 45t18.5 71.5t-18.5 71.5t-46 45
t-55.5 15.5q-51 0 -87.5 -35t-36.5 -97z" />
    <glyph glyph-name="Dcroat" unicode="&#x110;" horiz-adv-x="717" 
d="M5 302v92h71v306h238q111 0 193.5 -43t128.5 -121.5t46 -185.5q0 -106 -46 -185t-128.5 -122t-193.5 -43h-238v302h-71zM336 302h-112v-171h86q62 0 112.5 22.5t81 71t30.5 125.5t-30.5 125.5t-81 71t-112.5 22.5h-86v-175h112v-92z" />
    <glyph glyph-name="dcroat" unicode="&#x111;" 
d="M33 230q0 77 31 130.5t81.5 81.5t108.5 28q103 0 158 -86v188h-117v93h117v115h130v-115h92v-93h-92v-572h-130v76q-55 -86 -158 -86q-58 0 -108.5 28t-81.5 82t-31 130zM168 230q0 -61 36.5 -96.5t87.5 -35.5q28 0 55.5 15.5t46 45t18.5 71.5t-18.5 71.5t-46 45
t-55.5 15.5q-51 0 -87.5 -35t-36.5 -97z" />
    <glyph glyph-name="Emacron" unicode="&#x112;" horiz-adv-x="587" 
d="M116 774v115h365v-115h-365zM76 700h446v-122h-306v-147h286v-119h-286v-190h306v-122h-446v700z" />
    <glyph glyph-name="emacron" unicode="&#x113;" horiz-adv-x="555" 
d="M100 530v115h366v-115h-366zM520 120q-34 -58 -88 -94t-150 -36q-78 0 -133.5 31t-85.5 85.5t-30 123.5q0 13 1 25t3 24q14 85 77 138t168 53q114 0 177 -62.5t63 -171.5v-14.5t-2 -19.5h-355q7 -59 39 -86t78 -27q44 0 75 18t49 49zM280 378q-44 0 -74.5 -25t-37.5 -72
h214q-6 45 -30.5 71t-71.5 26z" />
    <glyph glyph-name="Ebreve" unicode="&#x114;" horiz-adv-x="587" 
d="M136 918h90q0 -24 18 -44t54 -20t54 20t18 44h90q0 -39 -18.5 -71.5t-54.5 -52.5t-89 -20q-52 0 -88.5 20t-55 52.5t-18.5 71.5zM76 700h446v-122h-306v-147h286v-119h-286v-190h306v-122h-446v700z" />
    <glyph glyph-name="ebreve" unicode="&#x115;" horiz-adv-x="555" 
d="M120 675h91q0 -24 17.5 -44t53.5 -20t54 20t18 44h91q0 -39 -19 -72t-55 -53t-89 -20q-52 0 -88.5 20t-55 53t-18.5 72zM520 120q-34 -58 -88 -94t-150 -36q-78 0 -133.5 31t-85.5 85.5t-30 123.5q0 13 1 25t3 24q14 85 77 138t168 53q114 0 177 -62.5t63 -171.5v-14.5
t-2 -19.5h-355q7 -59 39 -86t78 -27q44 0 75 18t49 49zM280 378q-44 0 -74.5 -25t-37.5 -72h214q-6 45 -30.5 71t-71.5 26z" />
    <glyph glyph-name="Edotaccent" unicode="&#x116;" horiz-adv-x="587" 
d="M220 848q0 32 22.5 53t55.5 21t55.5 -21t22.5 -53q0 -31 -22.5 -52.5t-55.5 -21.5t-55.5 21.5t-22.5 52.5zM76 700h446v-122h-306v-147h286v-119h-286v-190h306v-122h-446v700z" />
    <glyph glyph-name="edotaccent" unicode="&#x117;" horiz-adv-x="555" 
d="M204 604q0 32 22.5 53t55.5 21t55.5 -21t22.5 -53q0 -31 -22.5 -52.5t-55.5 -21.5t-55.5 21.5t-22.5 52.5zM520 120q-34 -58 -88 -94t-150 -36q-78 0 -133.5 31t-85.5 85.5t-30 123.5q0 13 1 25t3 24q14 85 77 138t168 53q114 0 177 -62.5t63 -171.5v-14.5t-2 -19.5h-355
q7 -59 39 -86t78 -27q44 0 75 18t49 49zM280 378q-44 0 -74.5 -25t-37.5 -72h214q-6 45 -30.5 71t-71.5 26z" />
    <glyph glyph-name="Eogonek" unicode="&#x118;" horiz-adv-x="587" 
d="M389 -116l33 -64q-11 -15 -34 -27.5t-62 -12.5q-52 0 -86 26.5t-34 73.5q0 37 27 66.5t65 53.5h-222v700h446v-122h-306v-147h286v-119h-286v-190h306v-122h-138q-39 -19 -61.5 -45t-22.5 -51q0 -40 39 -40q17 0 28.5 5t21.5 15z" />
    <glyph glyph-name="eogonek" unicode="&#x119;" horiz-adv-x="555" 
d="M318 -112l34 -62q-11 -15 -34.5 -27.5t-62.5 -12.5q-52 0 -85.5 26.5t-33.5 73.5q0 34 22.5 61t56.5 50q-87 19 -134.5 82t-47.5 151q0 13 1 25t3 24q14 85 77 138t168 53q114 0 177 -62.5t63 -171.5v-14.5t-2 -19.5h-355q7 -59 39 -86t78 -27q44 0 75 18t49 49l114 -36
q-34 -58 -87.5 -94t-145.5 -36q-27 -18 -42 -39t-15 -41q0 -42 38 -42q17 0 28.5 5t21.5 15zM280 378q-44 0 -74.5 -25t-37.5 -72h214q-6 45 -30.5 71t-71.5 26z" />
    <glyph glyph-name="Ecaron" unicode="&#x11a;" horiz-adv-x="587" 
d="M298 888l98 88l89 -62l-187 -140l-186 140l90 62zM76 700h446v-122h-306v-147h286v-119h-286v-190h306v-122h-446v700z" />
    <glyph glyph-name="ecaron" unicode="&#x11b;" horiz-adv-x="555" 
d="M282 644l98 88l89 -62l-187 -140l-186 140l90 62zM520 120q-34 -58 -88 -94t-150 -36q-78 0 -133.5 31t-85.5 85.5t-30 123.5q0 13 1 25t3 24q14 85 77 138t168 53q114 0 177 -62.5t63 -171.5v-14.5t-2 -19.5h-355q7 -59 39 -86t78 -27q44 0 75 18t49 49zM280 378
q-44 0 -74.5 -25t-37.5 -72h214q-6 45 -30.5 71t-71.5 26z" />
    <glyph glyph-name="Gcircumflex" unicode="&#x11c;" horiz-adv-x="802" 
d="M414 863l-96 -89l-90 62l186 140l187 -140l-89 -62zM416 260v114h346q3 -80 -19 -151t-67 -125t-112 -85t-154 -31q-109 0 -193.5 46.5t-132.5 129.5t-48 192t49 191t134.5 127.5t194.5 45.5q107 0 184 -43.5t125 -116.5l-123 -72q-27 45 -72.5 74.5t-113.5 29.5
q-63 0 -115 -28.5t-82.5 -81.5t-30.5 -126t30 -127t81.5 -83.5t116.5 -29.5q86 0 135.5 43.5t66.5 106.5h-200z" />
    <glyph glyph-name="gcircumflex" unicode="&#x11d;" horiz-adv-x="598" 
d="M302 618l-96 -88l-90 62l186 140l187 -140l-90 -62zM42 -32h128q3 -45 34 -71t82 -26q33 0 62 15t46.5 46t17.5 78v71q-54 -83 -158 -83q-58 0 -108.5 27t-81.5 80t-31 129q0 77 31 129.5t81.5 79.5t108.5 27q104 0 158 -83v73h125v-450q0 -86 -33.5 -140.5t-89.5 -80
t-122 -25.5q-121 0 -182.5 56.5t-67.5 147.5zM168 234q0 -61 36.5 -94.5t87.5 -33.5q28 0 55.5 14.5t46 43t18.5 70.5t-18.5 70.5t-46 43t-55.5 14.5q-51 0 -87.5 -33t-36.5 -95z" />
    <glyph glyph-name="Gbreve" unicode="&#x11e;" horiz-adv-x="802" 
d="M252 918h91q0 -24 17.5 -44t53.5 -20t54 20t18 44h91q0 -39 -19 -71.5t-55 -52.5t-89 -20q-52 0 -88.5 20t-55 52.5t-18.5 71.5zM416 260v114h346q3 -80 -19 -151t-67 -125t-112 -85t-154 -31q-109 0 -193.5 46.5t-132.5 129.5t-48 192t49 191t134.5 127.5t194.5 45.5
q107 0 184 -43.5t125 -116.5l-123 -72q-27 45 -72.5 74.5t-113.5 29.5q-63 0 -115 -28.5t-82.5 -81.5t-30.5 -126t30 -127t81.5 -83.5t116.5 -29.5q86 0 135.5 43.5t66.5 106.5h-200z" />
    <glyph glyph-name="gbreve" unicode="&#x11f;" horiz-adv-x="598" 
d="M140 675h90q0 -24 18 -44t54 -20t54 20t18 44h91q0 -39 -19 -72t-55 -53t-89 -20q-52 0 -88.5 20t-55 53t-18.5 72zM42 -32h128q3 -45 34 -71t82 -26q33 0 62 15t46.5 46t17.5 78v71q-54 -83 -158 -83q-58 0 -108.5 27t-81.5 80t-31 129q0 77 31 129.5t81.5 79.5
t108.5 27q104 0 158 -83v73h125v-450q0 -86 -33.5 -140.5t-89.5 -80t-122 -25.5q-121 0 -182.5 56.5t-67.5 147.5zM168 234q0 -61 36.5 -94.5t87.5 -33.5q28 0 55.5 14.5t46 43t18.5 70.5t-18.5 70.5t-46 43t-55.5 14.5q-51 0 -87.5 -33t-36.5 -95z" />
    <glyph glyph-name="Gdotaccent" unicode="&#x120;" horiz-adv-x="802" 
d="M336 848q0 32 22.5 53t55.5 21t55.5 -21t22.5 -53q0 -31 -22.5 -52.5t-55.5 -21.5t-55.5 21.5t-22.5 52.5zM416 260v114h346q3 -80 -19 -151t-67 -125t-112 -85t-154 -31q-109 0 -193.5 46.5t-132.5 129.5t-48 192t49 191t134.5 127.5t194.5 45.5q107 0 184 -43.5
t125 -116.5l-123 -72q-27 45 -72.5 74.5t-113.5 29.5q-63 0 -115 -28.5t-82.5 -81.5t-30.5 -126t30 -127t81.5 -83.5t116.5 -29.5q86 0 135.5 43.5t66.5 106.5h-200z" />
    <glyph glyph-name="gdotaccent" unicode="&#x121;" horiz-adv-x="598" 
d="M222 627q0 32 22.5 52.5t55.5 20.5t55.5 -20.5t22.5 -52.5q0 -31 -22.5 -52.5t-55.5 -21.5t-55.5 21.5t-22.5 52.5zM42 -32h128q3 -45 34 -71t82 -26q33 0 62 15t46.5 46t17.5 78v71q-54 -83 -158 -83q-58 0 -108.5 27t-81.5 80t-31 129q0 77 31 129.5t81.5 79.5
t108.5 27q104 0 158 -83v73h125v-450q0 -86 -33.5 -140.5t-89.5 -80t-122 -25.5q-121 0 -182.5 56.5t-67.5 147.5zM168 234q0 -61 36.5 -94.5t87.5 -33.5q28 0 55.5 14.5t46 43t18.5 70.5t-18.5 70.5t-46 43t-55.5 14.5q-51 0 -87.5 -33t-36.5 -95z" />
    <glyph glyph-name="uni0122" unicode="&#x122;" horiz-adv-x="802" 
d="M416 260v114h346q3 -80 -19 -151t-67 -125t-112 -85t-154 -31q-109 0 -193.5 46.5t-132.5 129.5t-48 192t49 191t134.5 127.5t194.5 45.5q107 0 184 -43.5t125 -116.5l-123 -72q-27 45 -72.5 74.5t-113.5 29.5q-63 0 -115 -28.5t-82.5 -81.5t-30.5 -126t30 -127
t81.5 -83.5t116.5 -29.5q86 0 135.5 43.5t66.5 106.5h-200zM368 -78l130 -32l-122 -250l-96 22z" />
    <glyph glyph-name="uni0123" unicode="&#x123;" horiz-adv-x="570" 
d="M302 543l-124 51l158 229l92 -37zM42 -32h128q3 -45 34 -71t82 -26q33 0 62 15t46.5 46t17.5 78v71q-54 -83 -158 -83q-58 0 -108.5 27t-81.5 80t-31 129q0 77 31 129.5t81.5 79.5t108.5 27q104 0 158 -83v73h125v-450q0 -86 -33.5 -140.5t-89.5 -80t-122 -25.5
q-121 0 -182.5 56.5t-67.5 147.5zM168 234q0 -61 36.5 -94.5t87.5 -33.5q28 0 55.5 14.5t46 43t18.5 70.5t-18.5 70.5t-46 43t-55.5 14.5q-51 0 -87.5 -33t-36.5 -95z" />
    <glyph glyph-name="Hcircumflex" unicode="&#x124;" horiz-adv-x="764" 
d="M383 863l-97 -89l-90 62l187 140l186 -140l-89 -62zM76 700h144v-262h326v262h144v-700h-144v307h-326v-307h-144v700z" />
    <glyph glyph-name="hcircumflex" unicode="&#x125;" horiz-adv-x="555" 
d="M133 928l-97 -88l-90 62l187 140l186 -140l-89 -62zM362 280q0 45 -17.5 69.5t-58.5 24.5q-40 0 -66 -25t-26 -69v-280h-130v780h130v-381q22 35 57 55.5t83 20.5q81 0 119.5 -45.5t38.5 -131.5v-298h-130v280z" />
    <glyph glyph-name="Hbar" unicode="&#x126;" horiz-adv-x="764" 
d="M5 538v96h71v66h144v-66h326v66h144v-66h70v-96h-70v-538h-144v307h-326v-307h-144v538h-71zM220 438h326v100h-326v-100z" />
    <glyph glyph-name="hbar" unicode="&#x127;" horiz-adv-x="555" 
d="M362 280q0 45 -17.5 69.5t-58.5 24.5q-40 0 -66 -25t-26 -69v-280h-130v606h-59v114h59v60h130v-60h137v-114h-137v-213q20 38 55.5 60t84.5 22q81 0 119.5 -45.5t38.5 -131.5v-298h-130v280z" />
    <glyph glyph-name="Itilde" unicode="&#x128;" horiz-adv-x="297" 
d="M-38 832q8 37 39.5 63.5t74.5 26.5q25 0 41.5 -7.5t29.5 -17.5t27.5 -17.5t35.5 -7.5q17 0 32.5 14t30.5 38l63 -66q-8 -18 -26.5 -37t-44.5 -31.5t-55 -12.5q-27 0 -48.5 12.5t-41.5 25.5t-44 13q-19 0 -29.5 -9.5t-14.5 -21.5t-4 -20zM76 700h146v-700h-146v700z" />
    <glyph glyph-name="itilde" unicode="&#x129;" horiz-adv-x="271" 
d="M-51 588q8 37 40 63.5t75 26.5q25 0 41 -7.5t29 -17.5t27 -17.5t35 -7.5q17 0 32.5 14t30.5 38l63 -66q-8 -18 -26.5 -37t-44.5 -32t-55 -13q-27 0 -48.5 13t-41.5 26t-44 13q-19 0 -29.5 -9.5t-14.5 -21.5t-4 -20zM72 460h126v-460h-126v460z" />
    <glyph glyph-name="Imacron" unicode="&#x12a;" horiz-adv-x="297" 
d="M-34 774v115h366v-115h-366zM76 700h146v-700h-146v700z" />
    <glyph glyph-name="imacron" unicode="&#x12b;" horiz-adv-x="271" 
d="M-47 530v115h365v-115h-365zM72 460h126v-460h-126v460z" />
    <glyph glyph-name="Ibreve" unicode="&#x12c;" horiz-adv-x="297" 
d="M-14 918h92q0 -24 17.5 -44t53.5 -20t53.5 20t17.5 44h91q0 -39 -18.5 -71.5t-54.5 -52.5t-89 -20q-52 0 -88.5 20t-55.5 52.5t-19 71.5zM76 700h146v-700h-146v700z" />
    <glyph glyph-name="ibreve" unicode="&#x12d;" horiz-adv-x="271" 
d="M-28 675h92q0 -24 18 -44t54 -20t53.5 20t17.5 44h91q0 -39 -18.5 -72t-54.5 -53t-89 -20q-52 0 -89 20t-56 53t-19 72zM72 460h126v-460h-126v460z" />
    <glyph glyph-name="Iogonek" unicode="&#x12e;" horiz-adv-x="297" 
d="M208 -116l34 -62q-11 -15 -34.5 -27.5t-62.5 -12.5q-52 0 -85.5 26.5t-33.5 73.5q0 37 26 65.5t64 52.5h-40v700h146v-700h-22q-37 -19 -58.5 -44.5t-21.5 -49.5q0 -42 38 -42q17 0 28.5 5t21.5 15z" />
    <glyph glyph-name="iogonek" unicode="&#x12f;" horiz-adv-x="271" 
d="M58 638q0 32 22.5 53t55.5 21t55.5 -21t22.5 -53q0 -31 -22.5 -52.5t-55.5 -21.5t-55.5 21.5t-22.5 52.5zM186 -116l33 -64q-11 -15 -34 -27.5t-62 -12.5q-52 0 -85.5 26.5t-33.5 73.5q0 37 26.5 66.5t65.5 53.5h-24v460h126v-460h-17q-39 -19 -61 -45t-22 -51
q0 -40 38 -40q17 0 28.5 5t21.5 15z" />
    <glyph glyph-name="Idotaccent" unicode="&#x130;" horiz-adv-x="297" 
d="M70 848q0 32 22.5 53t55.5 21t55.5 -21t22.5 -53q0 -31 -22.5 -52.5t-55.5 -21.5t-55.5 21.5t-22.5 52.5zM76 700h146v-700h-146v700z" />
    <glyph glyph-name="dotlessi" unicode="&#x131;" horiz-adv-x="271" 
d="M72 460h126v-460h-126v460z" />
    <glyph glyph-name="IJ" unicode="&#x132;" horiz-adv-x="583" 
d="M210 -76q14 -15 35 -24t45 -9q23 0 44.5 18.5t21.5 64.5v726h152v-756q0 -63 -27.5 -102t-74.5 -57.5t-105 -18.5q-52 0 -98.5 19t-70.5 37zM76 700h146v-700h-146v700z" />
    <glyph glyph-name="ij" unicode="&#x133;" horiz-adv-x="534" 
d="M321 638q0 32 22.5 53t55.5 21t55.5 -21t22.5 -53q0 -31 -22.5 -52.5t-55.5 -21.5t-55.5 21.5t-22.5 52.5zM58 638q0 32 22.5 53t55.5 21t55.5 -21t22.5 -53q0 -31 -22.5 -52.5t-55.5 -21.5t-55.5 21.5t-22.5 52.5zM240 -88q11 -15 23 -20.5t25 -5.5q23 0 35.5 18
t12.5 57v499h126v-528q0 -79 -41 -122.5t-121 -43.5q-45 0 -73.5 16.5t-42.5 31.5zM72 460h126v-460h-126v460z" />
    <glyph glyph-name="Jcircumflex" unicode="&#x134;" horiz-adv-x="303" 
d="M152 863l-97 -89l-89 62l186 140l186 -140l-90 -62zM-70 -76q14 -15 35 -24t45 -9q23 0 44.5 18.5t21.5 64.5v726h152v-756q0 -63 -28 -102t-75 -57.5t-105 -18.5q-52 0 -98 19t-70 37z" />
    <glyph glyph-name="jcircumflex" unicode="&#x135;" horiz-adv-x="264" 
d="M130 618l-98 -88l-89 62l187 140l186 -140l-90 -62zM-28 -88q11 -15 22 -20.5t24 -5.5q23 0 35.5 18t12.5 57v499h127v-528q0 -79 -41 -122.5t-121 -43.5q-45 0 -73 16.5t-42 31.5z" />
    <glyph glyph-name="uni0136" unicode="&#x136;" horiz-adv-x="659" 
d="M76 700h148v-284l249 284h171l-290 -328l304 -372h-174l-260 317v-317h-148v700zM328 -60l132 -32l-122 -250l-98 23z" />
    <glyph glyph-name="uni0137" unicode="&#x137;" horiz-adv-x="535" 
d="M356 460h156l-198 -190l218 -270h-155l-190 234v-234h-125v780h125v-482zM258 -60l130 -32l-121 -250l-97 23z" />
    <glyph glyph-name="kgreenlandic" unicode="&#x138;" horiz-adv-x="535" 
d="M62 460h125v-162l169 162h156l-198 -190l218 -270h-155l-190 234v-234h-125v460z" />
    <glyph glyph-name="Lacute" unicode="&#x139;" horiz-adv-x="504" 
d="M439 924l-180 -150l-73 40l150 160zM76 700h144v-574h279v-126h-423v700z" />
    <glyph glyph-name="lacute" unicode="&#x13a;" horiz-adv-x="258" 
d="M282 990l-180 -150l-74 38l150 160zM64 780h130v-780h-130v780z" />
    <glyph glyph-name="uni013B" unicode="&#x13b;" horiz-adv-x="504" 
d="M76 700h144v-574h279v-126h-423v700zM266 -60l130 -32l-120 -250l-98 23z" />
    <glyph glyph-name="uni013C" unicode="&#x13c;" horiz-adv-x="258" 
d="M64 780h130v-780h-130v780zM108 -60l130 -32l-120 -250l-98 23z" />
    <glyph glyph-name="Lcaron" unicode="&#x13d;" horiz-adv-x="504" 
d="M387 714l130 -31l-121 -250l-97 22zM76 700h144v-574h279v-126h-423v700z" />
    <glyph glyph-name="lcaron" unicode="&#x13e;" horiz-adv-x="258" 
d="M64 780h130v-780h-130v780zM332 780l130 -32l-120 -250l-98 23z" />
    <glyph glyph-name="Ldot" unicode="&#x13f;" horiz-adv-x="504" 
d="M76 700h144v-574h279v-126h-423v700zM302 426q0 33 24 57t60 24t59 -24t23 -57t-23 -57.5t-59 -24.5t-60 24.5t-24 57.5z" />
    <glyph glyph-name="ldot" unicode="&#x140;" horiz-adv-x="444" 
d="M64 780h130v-780h-130v780zM241 411q0 33 23.5 57t59.5 24t59 -24t23 -57t-23 -57.5t-59 -24.5t-59.5 24.5t-23.5 57.5z" />
    <glyph glyph-name="Lslash" unicode="&#x141;" horiz-adv-x="508" 
d="M5 318l-33 68l104 69v245h144v-149l88 58l33 -68l-121 -80v-335h279v-126h-423v365z" />
    <glyph glyph-name="lslash" unicode="&#x142;" horiz-adv-x="258" 
d="M-4 318l-32 68l100 65v329h130v-245l76 49l34 -68l-110 -71v-445h-130v362z" />
    <glyph glyph-name="Nacute" unicode="&#x143;" horiz-adv-x="787" 
d="M552 909l-180 -150l-74 39l150 160zM573 700h139v-735l-496 467v-432h-140v735l497 -467v432z" />
    <glyph glyph-name="nacute" unicode="&#x144;" horiz-adv-x="560" 
d="M437 680l-180 -150l-73 39l150 160zM362 280q0 45 -17.5 69.5t-58.5 24.5q-40 0 -66 -25t-26 -69v-280h-130v460h130v-71q20 37 55.5 59t84.5 22q81 0 121.5 -45t40.5 -131v-294h-134v280z" />
    <glyph glyph-name="uni0145" unicode="&#x145;" horiz-adv-x="787" 
d="M573 700h139v-735l-496 467v-432h-140v735l497 -467v432zM374 -48l130 -32l-120 -250l-98 22z" />
    <glyph glyph-name="uni0146" unicode="&#x146;" horiz-adv-x="560" 
d="M362 280q0 45 -17.5 69.5t-58.5 24.5q-40 0 -66 -25t-26 -69v-280h-130v460h130v-66q22 35 57 55.5t83 20.5q81 0 121.5 -45t40.5 -131v-294h-134v280zM258 -60l130 -32l-120 -250l-98 23z" />
    <glyph glyph-name="Ncaron" unicode="&#x147;" horiz-adv-x="787" 
d="M382 896l97 88l89 -62l-186 -140l-186 140l90 62zM573 700h139v-735l-496 467v-432h-140v735l497 -467v432z" />
    <glyph glyph-name="ncaron" unicode="&#x148;" horiz-adv-x="560" 
d="M280 644l96 88l90 -62l-186 -140l-186 140l89 62zM362 280q0 45 -17.5 69.5t-58.5 24.5q-40 0 -66 -25t-26 -69v-280h-130v460h130v-66q22 35 57 55.5t83 20.5q81 0 121.5 -45t40.5 -131v-294h-134v280z" />
    <glyph glyph-name="napostrophe" unicode="&#x149;" horiz-adv-x="713" 
d="M116 700h140l-102 -248h-92zM348 460v-64q22 34 57.5 54t82.5 20q81 0 121.5 -45t40.5 -131v-294h-135v280q0 45 -18 69.5t-59 24.5q-40 0 -65 -25t-25 -69v-280h-130v460h130z" />
    <glyph glyph-name="Eng" unicode="&#x14a;" horiz-adv-x="787" 
d="M551 -216q-36 0 -62.5 11t-52.5 36l56 97q10 -12 21 -19t25 -7q48 0 48 76v97l-370 357v-432h-140v735l497 -467v432h139v-752q0 -76 -42.5 -120t-118.5 -44z" />
    <glyph glyph-name="eng" unicode="&#x14b;" horiz-adv-x="560" 
d="M326 -234q-68 0 -116 48l56 98q19 -26 48 -26q48 0 48 75v319q0 94 -76 94q-40 0 -66 -25.5t-26 -70.5v-278h-130v460h130v-69q46 79 140 79q162 0 162 -176v-362q0 -79 -43.5 -122.5t-126.5 -43.5z" />
    <glyph glyph-name="Omacron" unicode="&#x14c;" horiz-adv-x="811" 
d="M224 774v115h364v-115h-364zM36 350q0 80 28 146.5t78.5 115t117.5 75.5t146 27q80 0 147 -27t117.5 -75.5t78 -115t27.5 -146.5q0 -79 -27.5 -146.5t-77 -117t-117 -77t-148.5 -27.5t-148.5 27.5t-117 77t-77 117t-27.5 146.5zM188 350q0 -67 27.5 -119t77 -81.5
t113.5 -29.5q65 0 114 29.5t76.5 81.5t27.5 119t-27 119t-76 81.5t-115 29.5q-64 0 -113.5 -29.5t-77 -81.5t-27.5 -119z" />
    <glyph glyph-name="omacron" unicode="&#x14d;" horiz-adv-x="576" 
d="M106 530v115h364v-115h-364zM33 230q0 72 33.5 126t91 84t130.5 30t131 -30t91.5 -84t33.5 -126q0 -71 -33.5 -125.5t-91.5 -84.5t-131 -30t-130.5 30t-91 84.5t-33.5 125.5zM166 230q0 -58 35.5 -94t86.5 -36t86.5 36t35.5 94q0 59 -35.5 94.5t-86.5 35.5t-86.5 -35.5
t-35.5 -94.5z" />
    <glyph glyph-name="Obreve" unicode="&#x14e;" horiz-adv-x="811" 
d="M244 918h90q0 -24 18 -44t54 -20t54 20t18 44h90q0 -39 -18.5 -71.5t-54.5 -52.5t-89 -20q-52 0 -88.5 20t-55 52.5t-18.5 71.5zM36 350q0 80 28 146.5t78.5 115t117.5 75.5t146 27q80 0 147 -27t117.5 -75.5t78 -115t27.5 -146.5q0 -79 -27.5 -146.5t-77 -117t-117 -77
t-148.5 -27.5t-148.5 27.5t-117 77t-77 117t-27.5 146.5zM188 350q0 -67 27.5 -119t77 -81.5t113.5 -29.5q65 0 114 29.5t76.5 81.5t27.5 119t-27 119t-76 81.5t-115 29.5q-64 0 -113.5 -29.5t-77 -81.5t-27.5 -119z" />
    <glyph glyph-name="obreve" unicode="&#x14f;" horiz-adv-x="576" 
d="M126 675h91q0 -24 17.5 -44t53.5 -20t54 20t18 44h90q0 -39 -18.5 -72t-54.5 -53t-89 -20q-52 0 -88.5 20t-55 53t-18.5 72zM33 230q0 72 33.5 126t91 84t130.5 30t131 -30t91.5 -84t33.5 -126q0 -71 -33.5 -125.5t-91.5 -84.5t-131 -30t-130.5 30t-91 84.5t-33.5 125.5z
M166 230q0 -58 35.5 -94t86.5 -36t86.5 36t35.5 94q0 59 -35.5 94.5t-86.5 35.5t-86.5 -35.5t-35.5 -94.5z" />
    <glyph glyph-name="Ohungarumlaut" unicode="&#x150;" horiz-adv-x="811" 
d="M316 775l-80 22l111 190l111 -27zM496 775l-80 22l110 190l112 -27zM36 350q0 80 28 146.5t78.5 115t117.5 75.5t146 27q80 0 147 -27t117.5 -75.5t78 -115t27.5 -146.5q0 -79 -27.5 -146.5t-77 -117t-117 -77t-148.5 -27.5t-148.5 27.5t-117 77t-77 117t-27.5 146.5z
M188 350q0 -67 27.5 -119t77 -81.5t113.5 -29.5q65 0 114 29.5t76.5 81.5t27.5 119t-27 119t-76 81.5t-115 29.5q-64 0 -113.5 -29.5t-77 -81.5t-27.5 -119z" />
    <glyph glyph-name="ohungarumlaut" unicode="&#x151;" horiz-adv-x="576" 
d="M198 532l-80 22l111 190l111 -27zM378 532l-80 22l110 190l112 -27zM33 230q0 72 33.5 126t91 84t130.5 30t131 -30t91.5 -84t33.5 -126q0 -71 -33.5 -125.5t-91.5 -84.5t-131 -30t-130.5 30t-91 84.5t-33.5 125.5zM166 230q0 -58 35.5 -94t86.5 -36t86.5 36t35.5 94
q0 59 -35.5 94.5t-86.5 35.5t-86.5 -35.5t-35.5 -94.5z" />
    <glyph glyph-name="OE" unicode="&#x152;" horiz-adv-x="985" 
d="M940 122v-122h-550q-101 0 -181.5 44t-126.5 122.5t-46 183.5t46 183.5t126 122.5t182 44h549v-122h-306v-147h286v-119h-286v-190h307zM412 128h82v444h-82q-108 0 -168 -57.5t-60 -164.5q0 -106 60 -164t168 -58z" />
    <glyph glyph-name="oe" unicode="&#x153;" horiz-adv-x="900" 
d="M35 230q0 75 31 128.5t83 82.5t114 29q69 0 117.5 -35.5t69.5 -99.5q26 62 80.5 98.5t127.5 36.5q55 0 102 -29t76 -81.5t29 -125.5v-16t-1 -16h-352q6 -56 37 -86t79 -30q44 0 72.5 19.5t49.5 50.5l114 -36q-31 -55 -88.5 -92.5t-131.5 -37.5q-67 0 -118 36.5t-76 96.5
q-22 -63 -70 -98t-117 -35q-62 0 -114 29t-83 83t-31 128zM626 378q-42 0 -74.5 -24.5t-38.5 -73.5h213q-6 45 -31 71.5t-69 26.5zM164 230q0 -63 35.5 -96.5t86.5 -33.5q47 0 78.5 33.5t31.5 96.5t-31.5 96.5t-78.5 33.5q-51 0 -86.5 -33.5t-35.5 -96.5z" />
    <glyph glyph-name="Racute" unicode="&#x154;" horiz-adv-x="620" 
d="M450 924l-180 -150l-73 40l150 160zM76 700h236q83 0 141.5 -28.5t89.5 -78.5t31 -117q0 -74 -38 -127.5t-110 -77.5l190 -271h-171l-163 254h-62v-254h-144v700zM303 576h-83v-208h83q56 0 89 27.5t33 76.5q0 50 -33 77t-89 27z" />
    <glyph glyph-name="racute" unicode="&#x155;" horiz-adv-x="390" 
d="M376 680l-180 -150l-72 40l150 160zM327 324q-13 12 -26.5 18.5t-33.5 6.5q-37 0 -56 -28t-19 -78v-243h-128v460h128v-57q21 31 50 49t60 18q25 0 48 -9t36 -27z" />
    <glyph glyph-name="uni0156" unicode="&#x156;" horiz-adv-x="620" 
d="M76 700h236q83 0 141.5 -28.5t89.5 -78.5t31 -117q0 -74 -38 -127.5t-110 -77.5l190 -271h-171l-163 254h-62v-254h-144v700zM303 576h-83v-208h83q56 0 89 27.5t33 76.5q0 50 -33 77t-89 27zM324 -60l130 -32l-120 -250l-98 23z" />
    <glyph glyph-name="uni0157" unicode="&#x157;" horiz-adv-x="390" 
d="M327 324q-13 12 -26.5 18.5t-33.5 6.5q-37 0 -56 -28t-19 -78v-243h-128v460h128v-57q21 31 50 49t60 18q25 0 48 -9t36 -27zM107 -60l130 -32l-121 -250l-97 23z" />
    <glyph glyph-name="Rcaron" unicode="&#x158;" horiz-adv-x="620" 
d="M296 888l96 88l90 -62l-186 -140l-186 140l89 62zM76 700h236q83 0 141.5 -28.5t89.5 -78.5t31 -117q0 -74 -38 -127.5t-110 -77.5l190 -271h-171l-163 254h-62v-254h-144v700zM303 576h-83v-208h83q56 0 89 27.5t33 76.5q0 50 -33 77t-89 27z" />
    <glyph glyph-name="rcaron" unicode="&#x159;" horiz-adv-x="390" 
d="M225 644l97 88l89 -62l-186 -140l-187 140l90 62zM327 324q-13 12 -26.5 18.5t-33.5 6.5q-37 0 -56 -28t-19 -78v-243h-128v460h128v-57q21 31 50 49t60 18q25 0 48 -9t36 -27z" />
    <glyph glyph-name="Sacute" unicode="&#x15a;" horiz-adv-x="601" 
d="M488 924l-180 -150l-73 40l150 160zM140 244q35 -66 75.5 -101t98.5 -35q47 0 71.5 21.5t24.5 60.5q0 34 -21 55.5t-55 37t-74 30.5q-26 10 -58 26t-61 40.5t-48 60t-19 84.5q0 57 30 99.5t83 66.5t121 24q70 0 119 -23t80 -58t45 -71l-110 -66q-22 41 -52 67.5t-76 26.5
q-42 0 -66.5 -19.5t-24.5 -52.5q0 -27 23 -46t59.5 -34t78.5 -30q45 -16 86 -42.5t66.5 -68t25.5 -103.5q0 -102 -67.5 -157t-184.5 -55q-62 0 -116 23.5t-95 66t-63 100.5z" />
    <glyph glyph-name="sacute" unicode="&#x15b;" horiz-adv-x="440" 
d="M398 680l-180 -150l-74 39l150 160zM86 171q38 -44 75 -63.5t67 -19.5q26 0 41 8.5t15 29.5q0 20 -18 32t-45.5 22t-54.5 22q-30 14 -57.5 30.5t-45 42.5t-17.5 65q0 42 24 71t63 44t85 15q58 0 108 -21t80 -53l-57 -82q-24 26 -59.5 41t-63.5 15q-25 0 -40 -7.5
t-15 -26.5q0 -15 17.5 -26t44.5 -21t55 -21q33 -13 61.5 -30.5t46.5 -43.5t18 -64q0 -77 -46.5 -111.5t-127.5 -34.5q-70 0 -127.5 30t-91.5 76z" />
    <glyph glyph-name="Scircumflex" unicode="&#x15c;" horiz-adv-x="601" 
d="M308 863l-96 -89l-90 62l186 140l186 -140l-89 -62zM140 244q35 -66 75.5 -101t98.5 -35q47 0 71.5 21.5t24.5 60.5q0 34 -21 55.5t-55 37t-74 30.5q-26 10 -58 26t-61 40.5t-48 60t-19 84.5q0 57 30 99.5t83 66.5t121 24q70 0 119 -23t80 -58t45 -71l-110 -66
q-22 41 -52 67.5t-76 26.5q-42 0 -66.5 -19.5t-24.5 -52.5q0 -27 23 -46t59.5 -34t78.5 -30q45 -16 86 -42.5t66.5 -68t25.5 -103.5q0 -102 -67.5 -157t-184.5 -55q-62 0 -116 23.5t-95 66t-63 100.5z" />
    <glyph glyph-name="scircumflex" unicode="&#x15d;" horiz-adv-x="440" 
d="M227 618l-97 -88l-89 62l186 140l187 -140l-90 -62zM86 171q38 -44 75 -63.5t67 -19.5q26 0 41 8.5t15 29.5q0 20 -18 32t-45.5 22t-54.5 22q-30 14 -57.5 30.5t-45 42.5t-17.5 65q0 42 24 71t63 44t85 15q58 0 108 -21t80 -53l-57 -82q-24 26 -59.5 41t-63.5 15
q-25 0 -40 -7.5t-15 -26.5q0 -15 17.5 -26t44.5 -21t55 -21q33 -13 61.5 -30.5t46.5 -43.5t18 -64q0 -77 -46.5 -111.5t-127.5 -34.5q-70 0 -127.5 30t-91.5 76z" />
    <glyph glyph-name="Scedilla" unicode="&#x15e;" horiz-adv-x="601" 
d="M140 244q35 -66 75.5 -101t98.5 -35q47 0 71.5 21.5t24.5 60.5q0 34 -21 55.5t-55 37t-74 30.5q-26 10 -58 25t-61 38.5t-48 59t-19 86.5q0 57 29 100.5t81.5 67.5t123.5 24q70 0 118 -22t79 -56.5t47 -73.5l-110 -66q-22 41 -55 67.5t-79 26.5q-42 0 -63.5 -19.5
t-21.5 -52.5q0 -27 23 -46t59.5 -34t78.5 -30q45 -16 86 -42.5t66.5 -68t25.5 -103.5q0 -95 -61 -149.5t-162 -61.5l-29 -45q6 2 13.5 3t14.5 1q19 0 39 -10.5t33.5 -30.5t13.5 -51q0 -34 -18.5 -57t-47 -35t-58.5 -12q-37 0 -66.5 8.5t-61.5 30.5l42 60q17 -13 36.5 -19
t35.5 -6q53 0 53 37q0 20 -16.5 26.5t-40.5 6.5q-7 0 -30 -2.5t-46 -13.5l53 112q-76 13 -135.5 62.5t-87.5 123.5z" />
    <glyph glyph-name="scedilla" unicode="&#x15f;" horiz-adv-x="440" 
d="M84 172q47 -47 84.5 -66.5t61.5 -19.5q23 0 38.5 10t15.5 31q0 30 -30.5 45t-69.5 29q-32 12 -62 27.5t-49 42.5t-19 71q0 65 47.5 96.5t116.5 31.5q58 0 106 -21t82 -53l-57 -81q-24 26 -57.5 43.5t-61.5 17.5q-25 0 -40.5 -9t-15.5 -27q0 -19 17 -30.5t43 -20t54 -19.5
q33 -13 61.5 -30t46.5 -43.5t18 -66.5q0 -71 -39 -105.5t-105 -39.5l-29 -43q6 2 13 2h14q19 0 39 -10t34 -29.5t14 -50.5q0 -34 -18.5 -57.5t-47.5 -35.5t-59 -12q-37 0 -65.5 8.5t-60.5 30.5l41 60q17 -13 36 -19t35 -6q54 0 54 37q0 20 -17 26.5t-41 6.5q-7 0 -29 -3
t-45 -14l52 113q-51 11 -93.5 37.5t-75.5 63.5z" />
    <glyph glyph-name="Scaron" unicode="&#x160;" horiz-adv-x="601" 
d="M308 888l97 88l89 -62l-186 -140l-186 140l90 62zM140 244q35 -66 75.5 -101t98.5 -35q47 0 71.5 21.5t24.5 60.5q0 34 -21 55.5t-55 37t-74 30.5q-26 10 -58 26t-61 40.5t-48 60t-19 84.5q0 57 30 99.5t83 66.5t121 24q70 0 119 -23t80 -58t45 -71l-110 -66
q-22 41 -52 67.5t-76 26.5q-42 0 -66.5 -19.5t-24.5 -52.5q0 -27 23 -46t59.5 -34t78.5 -30q45 -16 86 -42.5t66.5 -68t25.5 -103.5q0 -102 -67.5 -157t-184.5 -55q-62 0 -116 23.5t-95 66t-63 100.5z" />
    <glyph glyph-name="scaron" unicode="&#x161;" horiz-adv-x="440" 
d="M218 636l97 88l89 -62l-186 -140l-186 140l90 62zM86 171q38 -44 75 -63.5t67 -19.5q26 0 41 8.5t15 29.5q0 20 -18 32t-45.5 22t-54.5 22q-30 14 -57.5 30.5t-45 42.5t-17.5 65q0 42 24 71t63 44t85 15q58 0 108 -21t80 -53l-57 -82q-24 26 -59.5 41t-63.5 15
q-25 0 -40 -7.5t-15 -26.5q0 -15 17.5 -26t44.5 -21t55 -21q33 -13 61.5 -30.5t46.5 -43.5t18 -64q0 -77 -46.5 -111.5t-127.5 -34.5q-70 0 -127.5 30t-91.5 76z" />
    <glyph glyph-name="uni0162" unicode="&#x162;" horiz-adv-x="532" 
d="M219 11l95 -2l-80 -120q6 2 14 2h15q19 0 39 -10t33.5 -29.5t13.5 -50.5q0 -34 -18.5 -57t-47.5 -35t-59 -12q-37 0 -66 8.5t-61 30.5l42 59q17 -13 36 -18.5t35 -5.5q53 0 53 36q0 20 -16.5 27t-40.5 7q-7 0 -29.5 -3t-45.5 -14zM6 570v130h521v-130h-189v-570h-144v570
h-188z" />
    <glyph glyph-name="uni0163" unicode="&#x163;" horiz-adv-x="294" 
d="M100 11l95 -2l-80 -120q6 2 14 2h15q19 0 39 -10t33.5 -29.5t13.5 -50.5q0 -34 -18.5 -57t-47.5 -35t-59 -12q-37 0 -66 8.5t-61 30.5l42 59q17 -13 36 -18.5t35 -5.5q53 0 53 36q0 20 -16.5 27t-40.5 7q-7 0 -29.5 -3t-45.5 -14zM5 460h79v160h126v-160h80v-110h-80
v-350h-126v350h-79v110z" />
    <glyph glyph-name="Tcaron" unicode="&#x164;" horiz-adv-x="532" 
d="M266 888l97 88l89 -62l-186 -140l-186 140l90 62zM6 570v130h521v-130h-189v-570h-144v570h-188z" />
    <glyph glyph-name="tcaron" unicode="&#x165;" horiz-adv-x="443" 
d="M355 793l130 -31l-121 -250l-97 22zM5 460h79v160h126v-160h80v-110h-80v-350h-126v350h-79v110z" />
    <glyph glyph-name="Tbar" unicode="&#x166;" horiz-adv-x="532" 
d="M88.5068 325v114h355.57v-114h-355.57zM6 570v130h521v-130h-189v-570h-144v570h-188z" />
    <glyph glyph-name="tbar" unicode="&#x167;" horiz-adv-x="294" 
d="M20.0137 154v114h251.39v-114h-251.39zM5 460h79v160h126v-160h80v-110h-80v-350h-126v350h-79v110z" />
    <glyph glyph-name="Utilde" unicode="&#x168;" horiz-adv-x="678" 
d="M152 832q8 37 40.5 63.5t75.5 26.5q25 0 41 -7.5t29 -17.5t27 -17.5t35 -7.5q17 0 32.5 14t30.5 38l63 -66q-8 -18 -26.5 -37t-44.5 -31.5t-55 -12.5q-27 0 -48.5 12.5t-41.5 25.5t-44 13q-19 0 -29.5 -9.5t-14.5 -21.5t-4 -20zM71 700h143v-462q0 -58 32 -94.5t93 -36.5
q62 0 93.5 36.5t31.5 94.5v462h144v-470q0 -82 -35 -139t-96 -86t-138 -29t-137.5 29t-95.5 86t-35 139v470z" />
    <glyph glyph-name="utilde" unicode="&#x169;" horiz-adv-x="560" 
d="M93 588q8 37 40 63.5t75 26.5q25 0 41 -7.5t29 -17.5t27 -17.5t35 -7.5q17 0 33 14t31 38l63 -66q-8 -18 -26.5 -37t-44 -32t-54.5 -13q-27 0 -48.5 13t-42 26t-44.5 13q-19 0 -29.5 -9.5t-14 -21.5t-3.5 -20zM199 180q0 -45 17.5 -69.5t57.5 -24.5q41 0 66.5 25.5
t25.5 68.5v280h130v-460h-130v71q-20 -37 -55.5 -59t-84.5 -22q-81 0 -121.5 45t-40.5 131v294h135v-280z" />
    <glyph glyph-name="Umacron" unicode="&#x16a;" horiz-adv-x="678" 
d="M157 774v115h365v-115h-365zM71 700h143v-462q0 -58 32 -94.5t93 -36.5q62 0 93.5 36.5t31.5 94.5v462h144v-470q0 -82 -35 -139t-96 -86t-138 -29t-137.5 29t-95.5 86t-35 139v470z" />
    <glyph glyph-name="umacron" unicode="&#x16b;" horiz-adv-x="560" 
d="M98 530v115h365v-115h-365zM199 180q0 -45 17.5 -69.5t57.5 -24.5q41 0 66.5 25.5t25.5 68.5v280h130v-460h-130v71q-20 -37 -55.5 -59t-84.5 -22q-81 0 -121.5 45t-40.5 131v294h135v-280z" />
    <glyph glyph-name="Ubreve" unicode="&#x16c;" horiz-adv-x="678" 
d="M176 918h92q0 -24 17.5 -44t53.5 -20t54 20t18 44h91q0 -39 -19 -71.5t-55 -52.5t-89 -20q-52 0 -88.5 20t-55.5 52.5t-19 71.5zM71 700h143v-462q0 -58 32 -94.5t93 -36.5q62 0 93.5 36.5t31.5 94.5v462h144v-470q0 -82 -35 -139t-96 -86t-138 -29t-137.5 29t-95.5 86
t-35 139v470z" />
    <glyph glyph-name="ubreve" unicode="&#x16d;" horiz-adv-x="560" 
d="M118 675h90q0 -24 18 -44t54 -20t54 20t18 44h90q0 -39 -18.5 -72t-54.5 -53t-89 -20q-52 0 -88.5 20t-55 53t-18.5 72zM199 180q0 -45 17.5 -69.5t57.5 -24.5q41 0 66.5 25.5t25.5 68.5v280h130v-460h-130v71q-20 -37 -55.5 -59t-84.5 -22q-81 0 -121.5 45t-40.5 131
v294h135v-280z" />
    <glyph glyph-name="Uring" unicode="&#x16e;" horiz-adv-x="678" 
d="M221 886q0 50 35 80t83 30t83.5 -30t35.5 -80q0 -49 -35.5 -80.5t-83.5 -31.5t-83 31.5t-35 80.5zM292 886q0 -23 14 -36.5t33 -13.5t33 13.5t14 36.5t-14 36t-33 13t-33 -13t-14 -36zM71 700h143v-462q0 -58 32 -94.5t93 -36.5q62 0 93.5 36.5t31.5 94.5v462h144v-470
q0 -82 -35 -139t-96 -86t-138 -29t-137.5 29t-95.5 86t-35 139v470z" />
    <glyph glyph-name="uring" unicode="&#x16f;" horiz-adv-x="560" 
d="M162 641q0 50 35 80.5t83 30.5t83 -30.5t35 -80.5q0 -49 -35 -80t-83 -31t-83 31t-35 80zM232 641q0 -23 14.5 -36t33.5 -13t33.5 13t14.5 36t-14.5 36t-33.5 13t-33.5 -13t-14.5 -36zM199 180q0 -45 17.5 -69.5t57.5 -24.5q41 0 66.5 25.5t25.5 68.5v280h130v-460h-130
v71q-20 -37 -55.5 -59t-84.5 -22q-81 0 -121.5 45t-40.5 131v294h135v-280z" />
    <glyph glyph-name="Uhungarumlaut" unicode="&#x170;" horiz-adv-x="678" 
d="M249 775l-80 22l111 190l111 -27zM429 775l-80 22l110 190l112 -27zM71 700h143v-462q0 -58 32 -94.5t93 -36.5q62 0 93.5 36.5t31.5 94.5v462h144v-470q0 -82 -35 -139t-96 -86t-138 -29t-137.5 29t-95.5 86t-35 139v470z" />
    <glyph glyph-name="uhungarumlaut" unicode="&#x171;" horiz-adv-x="560" 
d="M190 532l-80 22l111 190l111 -27zM370 532l-80 22l110 190l112 -27zM199 180q0 -44 17.5 -69t57.5 -25q41 0 66.5 25.5t25.5 68.5v280h130v-460h-130v70q-43 -80 -140 -80q-81 0 -121.5 47t-40.5 129v294h135v-280z" />
    <glyph glyph-name="Uogonek" unicode="&#x172;" horiz-adv-x="678" 
d="M385 -141l33 -64q-11 -15 -34.5 -27.5t-62.5 -12.5q-52 0 -85 26.5t-33 73.5q0 32 19.5 58t50.5 47.5t66 39.5l41 -25q-39 -19 -62 -45t-23 -51q0 -40 40 -40q17 0 28.5 5t21.5 15zM71 700h143v-462q0 -58 32 -94.5t93 -36.5q62 0 93.5 36.5t31.5 94.5v462h144v-470
q0 -82 -35 -139t-96 -86t-138 -29t-137.5 29t-95.5 86t-35 139v470z" />
    <glyph glyph-name="uogonek" unicode="&#x173;" horiz-adv-x="560" 
d="M277 -128l33 -64q-11 -15 -34.5 -27.5t-62.5 -12.5q-52 0 -85 26.5t-33 73.5q0 32 19.5 58t50.5 47.5t66 39.5l41 -25q-39 -19 -62 -45t-23 -51q0 -40 40 -40q17 0 28.5 5t21.5 15zM199 180q0 -44 17.5 -69t57.5 -25q41 0 66.5 25.5t25.5 68.5v280h130v-460h-130v70
q-43 -80 -140 -80q-81 0 -121.5 47t-40.5 129v294h135v-280z" />
    <glyph glyph-name="Wcircumflex" unicode="&#x174;" horiz-adv-x="1042" 
d="M521 884l-97 -89l-89 61l186 140l187 -140l-90 -61zM720 252l148 448h168l-294 -739l-221 457l-221 -457l-294 739h169l147 -448l199 483z" />
    <glyph glyph-name="wcircumflex" unicode="&#x175;" horiz-adv-x="736" 
d="M366 644l-97 -89l-90 61l187 140l186 -140l-90 -61zM-4 460h138l102 -254l130 289l134 -291l102 256h139l-227 -491l-148 292l-144 -292z" />
    <glyph glyph-name="Ycircumflex" unicode="&#x176;" horiz-adv-x="630" 
d="M315 863l-97 -89l-88 62l185 140l187 -140l-90 -62zM465 700h165l-241 -410v-290h-147v289l-241 411h165l149 -282z" />
    <glyph glyph-name="ycircumflex" unicode="&#x177;" horiz-adv-x="496" 
d="M248 618l-96 -88l-90 62l186 140l186 -140l-88 -62zM504 460l-300 -680h-134l116 266l-192 414h145l115 -285l114 285h136z" />
    <glyph glyph-name="Ydieresis" unicode="&#x178;" horiz-adv-x="630" 
d="M109 856q0 32 22 53t55 21t56.5 -21t23.5 -53q0 -31 -23.5 -52.5t-56.5 -21.5t-55 21.5t-22 52.5zM366 856q0 32 22.5 53t55.5 21t55.5 -21t22.5 -53q0 -31 -22.5 -52.5t-55.5 -21.5t-55.5 21.5t-22.5 52.5zM465 700h165l-241 -410v-290h-147v289l-241 411h165l149 -282z
" />
    <glyph glyph-name="Zacute" unicode="&#x179;" horiz-adv-x="597" 
d="M485 924l-180 -150l-74 40l150 160zM50 570v130h532l-342 -574h311v-126h-540l339 570h-300z" />
    <glyph glyph-name="zacute" unicode="&#x17a;" horiz-adv-x="503" 
d="M440 692l-180 -150l-74 38l150 160zM269 341h-215v119h435l-247 -341h218v-119h-445z" />
    <glyph glyph-name="Zdotaccent" unicode="&#x17b;" horiz-adv-x="597" 
d="M238 848q0 32 22.5 53t55.5 21t55.5 -21t22.5 -53q0 -31 -22.5 -52.5t-55.5 -21.5t-55.5 21.5t-22.5 52.5zM50 570v130h532l-342 -574h311v-126h-540l339 570h-300z" />
    <glyph glyph-name="zdotaccent" unicode="&#x17c;" horiz-adv-x="503" 
d="M193 622q0 32 22.5 52.5t55.5 20.5t56 -20.5t23 -52.5q0 -31 -23 -52.5t-56 -21.5t-55.5 21.5t-22.5 52.5zM269 341h-215v119h435l-247 -341h218v-119h-445z" />
    <glyph glyph-name="Zcaron" unicode="&#x17d;" horiz-adv-x="597" 
d="M316 888l96 88l90 -62l-186 -140l-186 140l89 62zM50 570v130h532l-342 -574h311v-126h-540l339 570h-300z" />
    <glyph glyph-name="zcaron" unicode="&#x17e;" horiz-adv-x="499" 
d="M271 644l97 88l90 -62l-187 -140l-186 140l89 62zM270 341h-216v119h435l-247 -341h218v-119h-445z" />
    <glyph glyph-name="florin" unicode="&#x192;" horiz-adv-x="600" 
d="M196 -200q-29 0 -55.5 11.5t-60.5 38.5l54 93q15 -15 25 -20.5t19 -5.5q21 0 34 20t16 56l20 357h-66l8 110h64l8 168q5 77 48.5 122t109.5 43q29 0 55.5 -11t60.5 -38l-54 -94q-15 15 -25 20.5t-19 5.5q-21 0 -33.5 -20t-15.5 -56l-9 -140h87l-7 -110h-86l-21 -385
q-4 -76 -47.5 -121t-109.5 -44z" />
    <glyph glyph-name="uni0212" unicode="&#x212;" horiz-adv-x="620" 
d="M149 774q0 39 19 72t55.5 52.5t88.5 19.5q53 0 89 -19.5t54.5 -52.5t18.5 -72h-91q0 24 -17.5 44t-53.5 20t-54 -20t-18 -44h-91zM76 700h236q83 0 141.5 -28.5t89.5 -78.5t31 -117q0 -74 -38 -127.5t-110 -77.5l190 -271h-171l-163 254h-62v-254h-144v700zM303 576h-83
v-208h83q56 0 89 27.5t33 76.5q0 50 -33 77t-89 27z" />
    <glyph glyph-name="uni0213" unicode="&#x213;" horiz-adv-x="390" 
d="M63 530q0 39 18.5 72.5t55 53.5t88.5 20q53 0 89 -20t55 -53.5t19 -72.5h-91q0 24 -18 44.5t-54 20.5t-53.5 -20.5t-17.5 -44.5h-91zM327 324q-13 12 -26.5 18.5t-33.5 6.5q-37 0 -56 -28t-19 -78v-243h-128v460h128v-57q21 31 50 49t60 18q25 0 48 -9t36 -27z" />
    <glyph glyph-name="uni0218" unicode="&#x218;" horiz-adv-x="601" 
d="M140 244q35 -66 75.5 -101t98.5 -35q47 0 71.5 21.5t24.5 60.5q0 34 -21 55.5t-55 37t-74 30.5q-26 10 -58 26t-61 40.5t-48 60t-19 84.5q0 57 30 99.5t83 66.5t121 24q70 0 119 -23t80 -58t45 -71l-110 -66q-22 41 -52 67.5t-76 26.5q-42 0 -66.5 -19.5t-24.5 -52.5
q0 -27 23 -46t59.5 -34t78.5 -30q45 -16 86 -42.5t66.5 -68t25.5 -103.5q0 -102 -67.5 -157t-184.5 -55q-62 0 -116 23.5t-95 66t-63 100.5zM272 -70l130 -32l-121 -250l-97 23z" />
    <glyph glyph-name="uni0219" unicode="&#x219;" horiz-adv-x="440" 
d="M86 171q38 -44 75 -63.5t67 -19.5q26 0 41 8.5t15 29.5q0 20 -18 32t-45.5 22t-54.5 22q-30 14 -57.5 30.5t-45 42.5t-17.5 65q0 42 24 71t63 44t85 15q58 0 108 -21t80 -53l-57 -82q-24 26 -59.5 41t-63.5 15q-25 0 -40 -7.5t-15 -26.5q0 -15 17.5 -26t44.5 -21t55 -21
q33 -13 61.5 -30.5t46.5 -43.5t18 -64q0 -77 -46.5 -111.5t-127.5 -34.5q-70 0 -127.5 30t-91.5 76zM202 -68l130 -32l-121 -250l-97 23z" />
    <glyph glyph-name="uni021A" unicode="&#x21a;" horiz-adv-x="532" 
d="M6 570v130h521v-130h-189v-570h-144v570h-188zM246 -60l130 -32l-122 -250l-96 23z" />
    <glyph glyph-name="uni021B" unicode="&#x21b;" horiz-adv-x="294" 
d="M5 460h79v160h126v-160h80v-110h-80v-350h-126v350h-79v110zM126 -60l130 -32l-120 -250l-98 23z" />
    <glyph glyph-name="uni0237" unicode="&#x237;" horiz-adv-x="264" 
d="M-28 -88q11 -15 22 -20.5t24 -5.5q23 0 35.5 18t12.5 57v499h127v-528q0 -79 -41 -122.5t-121 -43.5q-45 0 -73 16.5t-42 31.5z" />
    <glyph glyph-name="circumflex" unicode="&#x2c6;" horiz-adv-x="480" 
d="M240 634l-96 -88l-90 62l186 140l186 -140l-90 -62z" />
    <glyph glyph-name="caron" unicode="&#x2c7;" horiz-adv-x="480" 
d="M240 670l96 88l90 -62l-186 -140l-186 140l90 62z" />
    <glyph glyph-name="breve" unicode="&#x2d8;" horiz-adv-x="546" 
d="M111 850h91q0 -24 17.5 -44t53.5 -20t53.5 20t17.5 44h91q0 -39 -18.5 -71.5t-54.5 -52.5t-89 -20q-52 0 -88.5 20t-55 52.5t-18.5 71.5z" />
    <glyph glyph-name="dotaccent" unicode="&#x2d9;" horiz-adv-x="300" 
d="M72 806q0 32 22.5 53t55.5 21t55.5 -21t22.5 -53q0 -31 -22.5 -52.5t-55.5 -21.5t-55.5 21.5t-22.5 52.5z" />
    <glyph glyph-name="ring" unicode="&#x2da;" horiz-adv-x="313" 
d="M38 774q0 50 35 80.5t83 30.5t83 -30.5t35 -80.5q0 -49 -35 -79.5t-83 -30.5t-83 30.5t-35 79.5zM108 774q0 -23 14.5 -36t33.5 -13t33.5 13t14.5 36t-14.5 36.5t-33.5 13.5t-33.5 -13.5t-14.5 -36.5z" />
    <glyph glyph-name="ogonek" unicode="&#x2db;" horiz-adv-x="260" 
d="M194 -116l33 -64q-11 -15 -34.5 -27.5t-62.5 -12.5q-52 0 -85 26.5t-33 73.5q0 32 19.5 58t50.5 47.5t66 39.5l41 -25q-39 -19 -62 -45t-23 -51q0 -40 40 -40q17 0 28.5 5t21.5 15z" />
    <glyph glyph-name="tilde" unicode="&#x2dc;" horiz-adv-x="530" 
d="M82 634q8 37 40.5 63.5t75.5 26.5q25 0 41 -7.5t29 -17.5t27 -17.5t35 -7.5q17 0 32 14t30 38l64 -65q-8 -18 -26.5 -37.5t-44.5 -32.5t-55 -13q-27 0 -48.5 13t-41.5 26t-44 13q-19 0 -29.5 -9.5t-14 -21t-3.5 -19.5z" />
    <glyph glyph-name="hungarumlaut" unicode="&#x2dd;" horiz-adv-x="0" 
d="M80 520l-80 22l111 190l111 -27zM260 520l-80 22l110 190l112 -27z" />
    <glyph glyph-name="gravecomb" unicode="&#x300;" horiz-adv-x="0" 
d="M180 538l-180 150l104 49l150 -160z" />
    <glyph glyph-name="acutecomb" unicode="&#x301;" horiz-adv-x="0" 
d="M88 541l-73 38l150 160l103 -48z" />
    <glyph glyph-name="uni0302" unicode="&#x302;" horiz-adv-x="0" 
d="M59 549l-59 73l166 126l164 -126l-58 -73l-107 89z" />
    <glyph glyph-name="tildecomb" unicode="&#x303;" horiz-adv-x="0" 
d="M66 580l-66 54q5 25 23 45t44 32.5t53 12.5q25 0 40.5 -7.5t27 -17.5t24.5 -17.5t32 -7.5q20 0 35 14t31 38l64 -65q-8 -18 -28.5 -37.5t-47.5 -32.5t-54 -13q-28 0 -48 13t-37.5 26t-40.5 13q-27 0 -39.5 -17.5t-12.5 -32.5z" />
    <glyph glyph-name="uni0304" unicode="&#x304;" horiz-adv-x="0" 
d="M0 576v99h366v-99h-366z" />
    <glyph glyph-name="uni0306" unicode="&#x306;" horiz-adv-x="0" 
d="M162 544q-72 0 -117 40t-45 104h102q0 -28 17.5 -46t42.5 -18q26 0 43 18t17 46h102q0 -64 -45 -104t-117 -40z" />
    <glyph glyph-name="uni0307" unicode="&#x307;" horiz-adv-x="0" 
d="M78 544q-33 0 -55.5 21.5t-22.5 52.5t22.5 52t55.5 21t55.5 -21t22.5 -52t-22.5 -52.5t-55.5 -21.5z" />
    <glyph glyph-name="uni0308" unicode="&#x308;" horiz-adv-x="0" 
d="M78 566q-35 0 -56.5 20.5t-21.5 53.5t21.5 53.5t56.5 20.5t56.5 -20.5t21.5 -53.5t-21.5 -53.5t-56.5 -20.5zM309 566q-35 0 -56.5 20.5t-21.5 53.5t21.5 53.5t56.5 20.5t56.5 -20.5t21.5 -53.5t-21.5 -53.5t-56.5 -20.5z" />
    <glyph glyph-name="uni030A" unicode="&#x30a;" horiz-adv-x="0" 
d="M123 520q-52 0 -87.5 33.5t-35.5 82.5q0 50 35.5 84t87.5 34q35 0 63.5 -15.5t45 -42.5t16.5 -60q0 -49 -36 -82.5t-89 -33.5zM123 584q22 0 36.5 15t14.5 37q0 23 -14.5 37.5t-36.5 14.5t-36 -14.5t-14 -37.5q0 -22 14 -37t36 -15z" />
    <glyph glyph-name="uni030B" unicode="&#x30b;" horiz-adv-x="0" 
d="M80 520l-80 22l111 190l111 -27zM260 520l-80 22l110 190l112 -27z" />
    <glyph glyph-name="uni030C" unicode="&#x30c;" horiz-adv-x="0" 
d="M166 549l-166 126l59 73l106 -90l107 90l58 -73z" />
    <glyph glyph-name="uni0312" unicode="&#x312;" horiz-adv-x="0" 
d="M130 498l-130 32l121 250l97 -23z" />
    <glyph glyph-name="uni0326" unicode="&#x326;" horiz-adv-x="0" 
d="M70 -210l-70 28l95 163l93 -39z" />
    <glyph glyph-name="uni0327" unicode="&#x327;" horiz-adv-x="0" 
d="M115 -217q-31 0 -61 7t-54 22l27 56q19 -10 38 -14t38 -4q43 0 43 36q0 31 -46 31q-12 0 -29 -0.5t-31 -2.5l72 154l78 -2l-52 -102q8 1 17 1q32 0 52.5 -24.5t20.5 -56.5q0 -43 -31.5 -72t-81.5 -29z" />
    <glyph glyph-name="uni0328" unicode="&#x328;" horiz-adv-x="0" 
d="M119 -220q-52 0 -85.5 26.5t-33.5 73.5q0 32 19.5 58t50.5 47.5t66 39.5l41 -25q-39 -19 -61 -45t-22 -51q0 -40 38 -40q17 0 28.5 5t21.5 15l33 -64q-11 -15 -34 -27.5t-62 -12.5z" />
    <glyph glyph-name="uni0394" unicode="&#x394;" horiz-adv-x="600" 
d="M18 0l282 800l281 -800h-563zM172 104h256l-128 412z" />
    <glyph glyph-name="uni03A9" unicode="&#x3a9;" horiz-adv-x="600" 
d="M66 0v112l88 -9q-84 99 -84 214q0 69 30 123.5t82 86.5t118 32t118 -32t82 -86.5t30 -123.5q0 -115 -84 -214l88 9v-112h-204v96q38 31 61.5 83.5t23.5 104.5q0 62 -30.5 98t-84.5 36t-85 -36t-31 -98q0 -52 24.5 -104.5t61.5 -83.5v-96h-204z" />
    <glyph glyph-name="uni03BC" unicode="&#x3bc;" horiz-adv-x="556" 
d="M199 460v-262q0 -45 17.5 -69.5t57.5 -24.5q41 0 66.5 25.5t25.5 68.5v262h130v-460h-130v56q-18 -27 -45 -44.5t-61 -17.5q-18 0 -35 4.5t-35 15.5v-334h-126v780h135z" />
    <glyph glyph-name="pi" unicode="&#x3c0;" horiz-adv-x="583" 
d="M30 460h514v-110h-80v-183q0 -33 7 -47.5t19 -18.5t27 -4v-106q-57 0 -96.5 8t-60 35.5t-20.5 86.5v229h-126v-350h-124v350h-60v110z" />
    <glyph glyph-name="uni0400" unicode="&#x400;" horiz-adv-x="587" 
d="M119 924l103 50l150 -160l-73 -40zM76 700h446v-122h-306v-147h286v-119h-286v-190h306v-122h-446v700z" />
    <glyph glyph-name="uni0401" unicode="&#x401;" horiz-adv-x="587" 
d="M336 848q0 32 22.5 53t55.5 21t55.5 -21t22.5 -53q0 -31 -22.5 -52.5t-55.5 -21.5t-55.5 21.5t-22.5 52.5zM106 848q0 32 22.5 53t55.5 21t55.5 -21t22.5 -53q0 -31 -22.5 -52.5t-55.5 -21.5t-55.5 21.5t-22.5 52.5zM76 700h446v-122h-306v-147h286v-119h-286v-190h306
v-122h-446v700z" />
    <glyph glyph-name="uni0403" unicode="&#x403;" horiz-adv-x="484" 
d="M458 924l-180 -150l-74 40l150 160zM80 700h396v-130h-252v-570h-144v700z" />
    <glyph glyph-name="uni040C" unicode="&#x40c;" horiz-adv-x="659" 
d="M540 924l-180 -150l-74 40l150 160zM76 700h148v-284l249 284h171l-290 -328l304 -372h-174l-260 317v-317h-148v700z" />
    <glyph glyph-name="uni040D" unicode="&#x40d;" horiz-adv-x="787" 
d="M251 904l103 48l150 -160l-73 -38zM216 700v-423l496 458v-735h-139v423l-497 -458v735h140z" />
    <glyph glyph-name="uni040E" unicode="&#x40e;" horiz-adv-x="593" 
d="M136 918h90q0 -24 18 -44t54 -20t54 20t18 44h90q0 -39 -18.5 -71.5t-54.5 -52.5t-89 -20q-52 0 -88.5 20t-55 52.5t-18.5 71.5zM600 700l-329 -700h-145l93 211l-225 489h160l140 -351l158 351h148z" />
    <glyph glyph-name="uni0410" unicode="&#x410;" horiz-adv-x="712" 
d="M549 0l-73 158h-240l-72 -158h-163l355 742l356 -742h-163zM356 472l-86 -200h172z" />
    <glyph glyph-name="uni0411" unicode="&#x411;" horiz-adv-x="635" 
d="M80 700h462v-122h-316v-147h132q68 0 121.5 -27t85 -75t31.5 -113q0 -64 -31.5 -113t-85 -76t-121.5 -27h-278v700zM332 312h-106v-190h106q54 0 85.5 23t31.5 71t-31.5 72t-85.5 24z" />
    <glyph glyph-name="uni0412" unicode="&#x412;" horiz-adv-x="632" 
d="M586 200q0 -69 -33 -113.5t-92 -65.5t-137 -21h-248v700h234q69 0 122 -19.5t83.5 -58.5t30.5 -99q0 -52 -28 -88.5t-76 -56.5q62 -19 103 -62.5t41 -115.5zM297 586h-77v-166h77q47 0 74 22.5t27 61.5t-27 60.5t-74 21.5zM220 114h92q54 0 90 25t36 79q0 51 -36 74.5
t-90 23.5h-92v-202z" />
    <glyph glyph-name="uni0413" unicode="&#x413;" horiz-adv-x="484" 
d="M80 700h396v-130h-252v-570h-144v700z" />
    <glyph glyph-name="uni0414" unicode="&#x414;" horiz-adv-x="855" 
d="M671 0h-490v-110h-141v236h106l280 609l280 -609h106v-236h-141v110zM426 464l-125 -338h250z" />
    <glyph glyph-name="uni0415" unicode="&#x415;" horiz-adv-x="587" 
d="M76 700h446v-122h-306v-147h286v-119h-286v-190h306v-122h-446v700z" />
    <glyph glyph-name="uni0416" unicode="&#x416;" horiz-adv-x="1028" 
d="M186 700l257 -290v290h148v-289l247 289h175l-295 -328l310 -372h-175l-262 326v-326h-148v328l-271 -328h-171l309 372l-294 328h170z" />
    <glyph glyph-name="uni0417" unicode="&#x417;" horiz-adv-x="649" 
d="M342 -14q-99 0 -163 31.5t-95.5 82.5t-31.5 111h142q3 -51 41 -78.5t102 -27.5q65 0 100 25t35 74q0 50 -44 79t-130 29v98q77 0 115.5 28.5t38.5 69.5q0 38 -28 62t-84 24q-57 0 -91 -25.5t-34 -64.5h-133q0 60 30.5 107t88 74t139.5 27q83 0 140 -26t86.5 -69.5
t29.5 -96.5q0 -54 -36 -93t-96 -60q69 -21 110.5 -64.5t41.5 -113.5q0 -91 -70 -147t-204 -56z" />
    <glyph glyph-name="uni0418" unicode="&#x418;" horiz-adv-x="787" 
d="M216 700v-423l496 458v-735h-139v423l-497 -458v735h140z" />
    <glyph glyph-name="uni0419" unicode="&#x419;" horiz-adv-x="787" 
d="M257 914h91q0 -24 17.5 -44t53.5 -20t54 20t18 44h91q0 -39 -19 -72t-55 -53t-89 -20q-52 0 -88.5 20t-55 53t-18.5 72zM216 700v-423l496 458v-735h-139v423l-497 -458v735h140z" />
    <glyph glyph-name="uni041A" unicode="&#x41a;" horiz-adv-x="659" 
d="M76 700h148v-284l249 284h171l-290 -328l304 -372h-174l-260 317v-317h-148v700z" />
    <glyph glyph-name="uni041B" unicode="&#x41b;" horiz-adv-x="736" 
d="M656 700v-700h-146v570h-255v-291q0 -133 -58.5 -206t-186.5 -73v122q48 0 75 43.5t27 112.5v422h544z" />
    <glyph glyph-name="uni041C" unicode="&#x41c;" horiz-adv-x="866" 
d="M232 391l-46 -391h-150l104 735l294 -451l292 451l106 -735h-151l-45 391l-202 -326z" />
    <glyph glyph-name="uni041D" unicode="&#x41d;" horiz-adv-x="764" 
d="M76 700h144v-262h326v262h144v-700h-144v307h-326v-307h-144v700z" />
    <glyph glyph-name="uni041E" unicode="&#x41e;" horiz-adv-x="811" 
d="M36 350q0 80 28 146.5t78.5 115t117.5 75.5t146 27q80 0 147 -27t117.5 -75.5t78 -115t27.5 -146.5q0 -79 -27.5 -146.5t-77 -117t-117 -77t-148.5 -27.5t-148.5 27.5t-117 77t-77 117t-27.5 146.5zM188 350q0 -67 27.5 -119t77 -81.5t113.5 -29.5q65 0 114 29.5
t76.5 81.5t27.5 119t-27 119t-76 81.5t-115 29.5q-64 0 -113.5 -29.5t-77 -81.5t-27.5 -119z" />
    <glyph glyph-name="uni041F" unicode="&#x41f;" horiz-adv-x="754" 
d="M528 570h-302v-570h-146v700h594v-700h-146v570z" />
    <glyph glyph-name="uni0420" unicode="&#x420;" horiz-adv-x="600" 
d="M76 700h227q125 0 193 -60t68 -164q0 -103 -68 -162.5t-193 -59.5h-83v-254h-144v700zM303 578h-83v-202h83q56 0 89 25.5t33 74.5q0 50 -33 76t-89 26z" />
    <glyph glyph-name="uni0421" unicode="&#x421;" horiz-adv-x="695" 
d="M192 350q0 -69 31 -120t82 -78.5t111 -27.5q74 0 126.5 28t87.5 68v-162q-43 -34 -93 -53t-127 -19q-81 0 -149.5 26.5t-118.5 74.5t-78 115t-28 148t28 148t78 115t118.5 74.5t149.5 26.5q77 0 127 -18.5t93 -53.5v-162q-35 41 -87.5 68.5t-126.5 27.5q-60 0 -111 -27.5
t-82 -78t-31 -120.5z" />
    <glyph glyph-name="uni0422" unicode="&#x422;" horiz-adv-x="532" 
d="M6 570v130h521v-130h-189v-570h-144v570h-188z" />
    <glyph glyph-name="uni0423" unicode="&#x423;" 
d="M609 700l-329 -700h-150l94 211l-230 489h164l140 -353l158 353h153z" />
    <glyph glyph-name="uni0424" unicode="&#x424;" horiz-adv-x="888" 
d="M370 700h148v-80h6q92 0 165.5 -32.5t116 -92.5t42.5 -145q0 -84 -42.5 -144.5t-116 -93t-165.5 -32.5h-6v-80h-148v80h-6q-92 0 -165.5 32.5t-116 93t-42.5 144.5q0 85 42.5 145t116 92.5t165.5 32.5h6v80zM702 350q0 73 -50.5 105.5t-133.5 35.5v-282q83 3 133.5 35.5
t50.5 105.5zM186 350q0 -73 50.5 -105.5t133.5 -35.5v282q-83 -3 -133.5 -35.5t-50.5 -105.5z" />
    <glyph glyph-name="uni0425" unicode="&#x425;" horiz-adv-x="646" 
d="M450 700h176l-216 -338l231 -362h-177l-138 250l-144 -250h-176l236 362l-211 338h176l120 -220z" />
    <glyph glyph-name="uni0426" unicode="&#x426;" horiz-adv-x="830" 
d="M222 130h324v570h146v-570h102v-258h-136v128h-582v700h146v-570z" />
    <glyph glyph-name="uni0427" unicode="&#x427;" horiz-adv-x="687" 
d="M219 700v-202q0 -61 32.5 -96.5t86.5 -35.5h120v334h149v-700h-149v238h-154q-74 0 -125 33t-77 89t-26 123v217h143z" />
    <glyph glyph-name="uni0428" unicode="&#x428;" horiz-adv-x="1052" 
d="M828 130v570h145v-700h-893v700h144v-570h232v570h140v-570h232z" />
    <glyph glyph-name="uni0429" unicode="&#x429;" horiz-adv-x="1114" 
d="M828 130v570h145v-570h103v-258h-137v128h-859v700h144v-570h232v570h140v-570h232z" />
    <glyph glyph-name="uni042A" unicode="&#x42a;" horiz-adv-x="712" 
d="M190 570h-180v130h324v-254h81q125 0 193.5 -59t68.5 -163q0 -103 -68.5 -163.5t-193.5 -60.5h-225v570zM415 324h-81v-202h81q56 0 89 26.5t33 75.5q0 50 -33 75t-89 25z" />
    <glyph glyph-name="uni042B" unicode="&#x42b;" horiz-adv-x="865" 
d="M644 700h146v-700h-146v700zM76 700h144v-254h83q125 0 193 -59t68 -163q0 -103 -68 -163.5t-193 -60.5h-227v700zM303 324h-83v-202h83q56 0 89 26.5t33 75.5q0 50 -33 75t-89 25z" />
    <glyph glyph-name="uni042C" unicode="&#x42c;" horiz-adv-x="600" 
d="M76 700h144v-254h83q125 0 193 -59t68 -163q0 -103 -68 -163.5t-193 -60.5h-227v700zM303 324h-83v-202h83q56 0 89 26.5t33 75.5q0 50 -33 75t-89 25z" />
    <glyph glyph-name="uni042D" unicode="&#x42d;" horiz-adv-x="695" 
d="M136 290v120h373q-14 52 -49 90.5t-82.5 59t-98.5 20.5q-74 0 -127.5 -27t-85.5 -60v149q43 35 93.5 53.5t126.5 18.5q81 0 149.5 -26.5t118.5 -74.5t78 -115t28 -148t-28 -148t-78 -115t-118.5 -74.5t-149.5 -26.5q-76 0 -126.5 19t-93.5 53v149q32 -33 85.5 -60
t127.5 -27q51 0 98.5 20.5t82.5 59t49 90.5h-373z" />
    <glyph glyph-name="uni042E" unicode="&#x42e;" horiz-adv-x="1108" 
d="M76 700h144v-262h122q19 82 70 144.5t126 97t165 34.5q80 0 147.5 -27t117.5 -75.5t78 -115t28 -146.5q0 -79 -27.5 -146.5t-77.5 -117t-117.5 -77t-148.5 -27.5q-100 0 -180 41.5t-129.5 115t-59.5 168.5h-114v-307h-144v700zM485 350q0 -67 27.5 -119t77 -81.5
t113.5 -29.5q65 0 113.5 29.5t76 81.5t27.5 119t-27 119t-75.5 81.5t-114.5 29.5q-64 0 -113.5 -29.5t-77 -81.5t-27.5 -119z" />
    <glyph glyph-name="uni042F" unicode="&#x42f;" horiz-adv-x="620" 
d="M546 700v-700h-144v254h-62l-164 -254h-170l190 271q-72 24 -110 77.5t-38 127.5q0 67 31 117t89.5 78.5t141.5 28.5h236zM318 368h84v208h-84q-55 0 -88.5 -27t-33.5 -77q0 -49 33.5 -76.5t88.5 -27.5z" />
    <glyph glyph-name="uni0430" unicode="&#x430;" horiz-adv-x="526" 
d="M115 328l-47 90q36 19 87 36.5t113 17.5q89 0 146 -38t57 -108v-326h-126v66q-20 -37 -61.5 -56.5t-93.5 -19.5q-70 0 -117 36.5t-47 105.5q0 70 53.5 109.5t144.5 39.5q36 0 67.5 -9t53.5 -21v54q0 31 -24 48t-62 17q-49 0 -88 -15.5t-56 -26.5zM157 137q0 -28 22 -42.5
t53 -14.5q47 0 80 23t33 81v1q-21 10 -43.5 15.5t-51.5 5.5q-45 0 -69 -18.5t-24 -50.5z" />
    <glyph glyph-name="uni0431" unicode="&#x431;" horiz-adv-x="589" 
d="M35 290q0 94 17 165.5t60.5 122.5t122.5 82q68 26 103.5 55t42.5 65h126q-7 -67 -63 -119.5t-138 -82.5q-81 -30 -115 -83.5t-40 -117.5q24 45 64.5 69t92.5 24q72 0 128 -31t87.5 -85t31.5 -124q0 -69 -32.5 -123.5t-90 -85.5t-133.5 -31t-135.5 33.5t-94 100.5
t-34.5 166zM176 230q0 -58 36 -94t87 -36t87 36t36 94q0 59 -35.5 94.5t-86.5 35.5q-30 0 -58.5 -15t-47 -44t-18.5 -71z" />
    <glyph glyph-name="uni0432" unicode="&#x432;" horiz-adv-x="502" 
d="M75 460h221q43 0 78.5 -12.5t57.5 -40t22 -72.5q0 -39 -21 -64t-55 -38q43 -9 69.5 -34t26.5 -74q0 -52 -34.5 -88.5t-113.5 -36.5h-251v460zM274 372h-73v-96h73q26 0 41 13.5t15 34.5t-15 34.5t-41 13.5zM284 190h-83v-102h83q35 0 50.5 15t15.5 36t-15.5 36t-50.5 15z
" />
    <glyph glyph-name="uni0433" unicode="&#x433;" horiz-adv-x="349" 
d="M66 460h280v-110h-151v-350h-129v460z" />
    <glyph glyph-name="uni0434" unicode="&#x434;" horiz-adv-x="690" 
d="M522 0h-353v-90h-129v196h86l216 389l217 -389h86v-196h-123v90zM342 291l-83 -185h167z" />
    <glyph glyph-name="uni0435" unicode="&#x435;" horiz-adv-x="557" 
d="M520 120q-34 -58 -88 -94t-150 -36q-78 0 -133.5 31t-85.5 85.5t-30 123.5q0 13 1 25t3 24q14 85 77 138t168 53q114 0 177 -62.5t63 -171.5v-14.5t-2 -19.5h-355q7 -59 39 -86t78 -27q44 0 75 18t49 49zM280 378q-44 0 -74.5 -25t-37.5 -72h214q-6 45 -30.5 71t-71.5 26
z" />
    <glyph glyph-name="uni0436" unicode="&#x436;" horiz-adv-x="819" 
d="M172 460l176 -167v167h123v-166l175 166h153l-201 -196l221 -264h-153l-195 239v-239h-123v241l-196 -241h-152l222 264l-202 196h152z" />
    <glyph glyph-name="uni0437" unicode="&#x437;" horiz-adv-x="516" 
d="M269 -10q-94 0 -147.5 45.5t-61.5 118.5h125q8 -30 27.5 -49t55.5 -19t58.5 16t22.5 43q0 59 -87 59v72q36 0 52 14.5t16 35.5t-15.5 33.5t-42.5 12.5q-32 0 -49.5 -18.5t-17.5 -41.5h-121q0 46 23.5 81.5t65.5 56t98 20.5q52 0 93 -17t64.5 -46.5t23.5 -66.5
q0 -66 -72 -94q92 -30 92 -112q0 -44 -27 -76.5t-72.5 -50t-103.5 -17.5z" />
    <glyph glyph-name="uni0438" unicode="&#x438;" horiz-adv-x="577" 
d="M193 460v-240l318 275v-495h-126v241l-319 -276v495h127z" />
    <glyph glyph-name="uni0439" unicode="&#x439;" horiz-adv-x="577" 
d="M132 695h91q0 -24 17.5 -44t53.5 -20t54 20t18 44h91q0 -39 -19 -71.5t-55 -52.5t-89 -20q-52 0 -88.5 20t-55 52.5t-18.5 71.5zM193 460v-240l318 275v-495h-126v241l-319 -276v495h127z" />
    <glyph glyph-name="uni043A" unicode="&#x43a;" horiz-adv-x="535" 
d="M62 460h125v-162l169 162h156l-198 -190l218 -270h-155l-190 234v-234h-125v460z" />
    <glyph glyph-name="uni043B" unicode="&#x43b;" horiz-adv-x="603" 
d="M524 460v-460h-126v341h-189v-181q0 -82 -44 -121t-155 -39v117q30 0 51.5 13t21.5 56v274h441z" />
    <glyph glyph-name="uni043C" unicode="&#x43c;" horiz-adv-x="642" 
d="M5 0l133 495l182 -328l184 328l133 -495h-133l-43 212l-141 -243l-139 242l-42 -211h-134z" />
    <glyph glyph-name="uni043D" unicode="&#x43d;" horiz-adv-x="600" 
d="M64 460h126v-166h220v166h126v-460h-126v192h-220v-192h-126v460z" />
    <glyph glyph-name="uni043E" unicode="&#x43e;" horiz-adv-x="576" 
d="M33 230q0 72 33.5 126t91 84t130.5 30t131 -30t91.5 -84t33.5 -126q0 -71 -33.5 -125.5t-91.5 -84.5t-131 -30t-130.5 30t-91 84.5t-33.5 125.5zM166 230q0 -58 35.5 -94t86.5 -36t86.5 36t35.5 94q0 59 -35.5 94.5t-86.5 35.5t-86.5 -35.5t-35.5 -94.5z" />
    <glyph glyph-name="uni043F" unicode="&#x43f;" horiz-adv-x="560" 
d="M496 460v-460h-126v346h-180v-346h-126v460h432z" />
    <glyph glyph-name="uni0440" unicode="&#x440;" 
d="M192 -220h-130v680h130v-75q25 42 64.5 65.5t91.5 23.5q58 0 108.5 -28t82 -82.5t31.5 -133.5t-31.5 -133.5t-82 -82.5t-108.5 -28q-52 0 -91.5 23.5t-64.5 65.5v-295zM434 230q0 62 -36.5 95t-87.5 33q-28 0 -55 -14.5t-45 -43t-18 -70.5t18 -70.5t45 -43t55 -14.5
q51 0 87.5 33.5t36.5 94.5z" />
    <glyph glyph-name="uni0441" unicode="&#x441;" horiz-adv-x="488" 
d="M164 230q0 -60 38.5 -96.5t93.5 -36.5q45 0 84.5 20t58.5 53v-133q-50 -47 -151 -47q-74 0 -132.5 30t-92 84.5t-33.5 125.5q0 72 33.5 126t92 84t132.5 30q50 0 88.5 -13t62.5 -33v-134q-19 33 -60 53t-83 20q-37 0 -67 -17.5t-47.5 -47.5t-17.5 -68z" />
    <glyph glyph-name="uni0442" unicode="&#x442;" horiz-adv-x="317" 
d="M5 460h307v-110h-90v-350h-126v350h-91v110z" />
    <glyph glyph-name="uni0443" unicode="&#x443;" horiz-adv-x="496" 
d="M504 460l-300 -680h-134l116 266l-192 414h145l115 -285l114 285h136z" />
    <glyph glyph-name="uni0444" unicode="&#x444;" horiz-adv-x="642" 
d="M33 230q0 94 60 157.5t167 78.5v94h124v-94q106 -15 166 -78.5t60 -157.5t-60 -157.5t-166 -78.5v-94h-124v94q-107 15 -167 78.5t-60 157.5zM153 230q0 -47 26.5 -79.5t80.5 -44.5v248q-54 -12 -80.5 -44.5t-26.5 -79.5zM490 230q0 47 -26 79.5t-80 44.5v-248
q54 12 80 44.5t26 79.5z" />
    <glyph glyph-name="uni0445" unicode="&#x445;" horiz-adv-x="498" 
d="M344 460h144l-170 -224l180 -236h-144l-102 146l-103 -146h-149l182 236l-172 224h149l93 -132z" />
    <glyph glyph-name="uni0446" unicode="&#x446;" horiz-adv-x="604" 
d="M500 110h80v-208h-120v98h-396v460h130v-350h176v350h130v-350z" />
    <glyph glyph-name="uni0447" unicode="&#x447;" horiz-adv-x="528" 
d="M180 460v-140q0 -46 19 -67t62 -21h69v228h130v-460h-130v122h-100q-69 0 -108.5 23.5t-55.5 69.5t-16 113v132h130z" />
    <glyph glyph-name="uni0448" unicode="&#x448;" horiz-adv-x="819" 
d="M472 110h158v350h126v-460h-692v460h126v-350h157v350h125v-350z" />
    <glyph glyph-name="uni0449" unicode="&#x449;" horiz-adv-x="859" 
d="M472 110h157v350h127v-350h80v-208h-121v98h-651v460h126v-350h157v350h125v-350z" />
    <glyph glyph-name="uni044A" unicode="&#x44a;" horiz-adv-x="601" 
d="M152 350h-147v110h269v-160h112q71 0 119.5 -35t48.5 -109t-48.5 -115t-119.5 -41h-234v350zM368 210h-94v-107h94q30 0 46 14.5t16 38.5t-16 39t-46 15z" />
    <glyph glyph-name="uni044B" unicode="&#x44b;" horiz-adv-x="727" 
d="M534 460h130v-460h-130v460zM64 460h130v-160h110q71 0 119.5 -35t48.5 -109t-48.5 -115t-119.5 -41h-240v460zM286 210h-92v-107h92q30 0 46.5 14.5t16.5 38.5t-16.5 39t-46.5 15z" />
    <glyph glyph-name="uni044C" unicode="&#x44c;" horiz-adv-x="526" 
d="M68 460h131v-160h110q71 0 119.5 -35t48.5 -109t-48.5 -115t-119.5 -41h-241v460zM290 210h-91v-107h91q30 0 46.5 14.5t16.5 38.5t-16.5 39t-46.5 15z" />
    <glyph glyph-name="uni044D" unicode="&#x44d;" horiz-adv-x="488" 
d="M120 276h200q-12 47 -47.5 73.5t-80.5 26.5q-42 0 -82.5 -19.5t-59.5 -52.5v120q24 20 63 33t89 13q74 0 132 -30t91.5 -84t33.5 -126q0 -71 -33.5 -125.5t-91.5 -84.5t-132 -30q-102 0 -152 47v119q19 -33 58 -52.5t84 -19.5q46 0 81 25.5t48 74.5h-201v92z" />
    <glyph glyph-name="uni044E" unicode="&#x44e;" horiz-adv-x="798" 
d="M64 460h126v-166h72q21 80 88.5 128t159.5 48q73 0 131 -30t91.5 -84t33.5 -126q0 -71 -33.5 -125.5t-91.5 -84.5t-131 -30q-66 0 -120.5 25t-89 70.5t-43.5 106.5h-67v-192h-126v460zM388 230q0 -58 35.5 -94t86.5 -36t86.5 36t35.5 94q0 59 -35.5 94.5t-86.5 35.5
t-86.5 -35.5t-35.5 -94.5z" />
    <glyph glyph-name="uni044F" unicode="&#x44f;" horiz-adv-x="526" 
d="M180 0h-136l125 185q-41 15 -67.5 48t-26.5 85t25.5 83t67 45t88.5 14h228v-460h-131v170h-64zM272 262h81v93h-81q-68 0 -68 -47q0 -46 68 -46z" />
    <glyph glyph-name="uni0450" unicode="&#x450;" horiz-adv-x="557" 
d="M120 680l103 49l150 -160l-73 -39zM520 120q-34 -58 -88 -94t-150 -36q-78 0 -133.5 31t-85.5 85.5t-30 123.5q0 13 1 25t3 24q14 85 77 138t168 53q114 0 177 -62.5t63 -171.5v-14.5t-2 -19.5h-355q7 -59 39 -86t78 -27q44 0 75 18t49 49zM280 378q-44 0 -74.5 -25
t-37.5 -72h214q-6 45 -30.5 71t-71.5 26z" />
    <glyph glyph-name="uni0451" unicode="&#x451;" horiz-adv-x="557" 
d="M320 604q0 32 22.5 53t55.5 21t55.5 -21t22.5 -53q0 -31 -22.5 -52.5t-55.5 -21.5t-55.5 21.5t-22.5 52.5zM89 604q0 32 22.5 53t55.5 21t56 -21t23 -53q0 -31 -23 -52.5t-56 -21.5t-55.5 21.5t-22.5 52.5zM520 120q-34 -58 -88 -94t-150 -36q-78 0 -133.5 31t-85.5 85.5
t-30 123.5q0 13 1 25t3 24q14 85 77 138t168 53q114 0 177 -62.5t63 -171.5v-14.5t-2 -19.5h-355q7 -59 39 -86t78 -27q44 0 75 18t49 49zM280 378q-44 0 -74.5 -25t-37.5 -72h214q-6 45 -30.5 71t-71.5 26z" />
    <glyph glyph-name="uni0453" unicode="&#x453;" horiz-adv-x="349" 
d="M387 680l-180 -150l-73 39l150 160zM66 460h280v-110h-151v-350h-129v460z" />
    <glyph glyph-name="uni045C" unicode="&#x45c;" horiz-adv-x="440" 
d="M466 680l-180 -150l-72 39l150 160zM62 460h125v-162l169 162h156l-198 -190l218 -270h-155l-190 234v-234h-125v460z" />
    <glyph glyph-name="uni045D" unicode="&#x45d;" horiz-adv-x="577" 
d="M126 705l103 49l150 -160l-73 -39zM193 460v-240l318 275v-495h-126v241l-319 -276v495h127z" />
    <glyph glyph-name="uni045E" unicode="&#x45e;" horiz-adv-x="440" 
d="M86 675h91q0 -24 17.5 -44t53.5 -20t54 20t18 44h91q0 -39 -19 -72t-55 -53t-89 -20q-52 0 -88.5 20t-55 53t-18.5 72zM504 460l-300 -680h-134l116 266l-192 414h145l115 -285l114 285h136z" />
    <glyph glyph-name="Wgrave" unicode="&#x1e80;" horiz-adv-x="1042" 
d="M521 794l-180 150l104 49l150 -160zM718 266l150 434h168l-294 -739l-221 457l-221 -457l-294 739h169l151 -434l195 469z" />
    <glyph glyph-name="wgrave" unicode="&#x1e81;" horiz-adv-x="736" 
d="M366 554l-180 150l104 49l150 -160zM-4 460h138l102 -254l130 289l134 -291l102 256h139l-227 -491l-148 292l-144 -292z" />
    <glyph glyph-name="Wacute" unicode="&#x1e82;" horiz-adv-x="1042" 
d="M521 795l-73 38l150 160l103 -48zM718 266l150 434h168l-294 -739l-221 457l-221 -457l-294 739h169l151 -434l195 469z" />
    <glyph glyph-name="wacute" unicode="&#x1e83;" horiz-adv-x="736" 
d="M365 555l-73 38l150 160l103 -48zM-4 460h138l102 -254l130 289l134 -291l102 256h139l-227 -491l-148 292l-144 -292z" />
    <glyph glyph-name="Wdieresis" unicode="&#x1e84;" horiz-adv-x="1042" 
d="M558 868q0 32 23 53t56 21t55.5 -21t22.5 -53q0 -31 -22.5 -52.5t-55.5 -21.5t-56 21.5t-23 52.5zM328 868q0 32 22.5 53t55.5 21t55.5 -21t22.5 -53q0 -31 -22.5 -52.5t-55.5 -21.5t-55.5 21.5t-22.5 52.5zM718 266l150 434h168l-294 -739l-221 457l-221 -457l-294 739
h169l151 -434l195 469z" />
    <glyph glyph-name="wdieresis" unicode="&#x1e85;" horiz-adv-x="736" 
d="M402 628q0 32 23 53t56 21t55.5 -21t22.5 -53q0 -31 -22.5 -52.5t-55.5 -21.5t-56 21.5t-23 52.5zM172 628q0 32 22.5 53t55.5 21t55.5 -21t22.5 -53q0 -31 -22.5 -52.5t-55.5 -21.5t-55.5 21.5t-22.5 52.5zM-4 460h138l102 -254l130 289l134 -291l102 256h139l-227 -491
l-148 292l-144 -292z" />
    <glyph glyph-name="uni1E86" unicode="&#x1e86;" horiz-adv-x="1042" 
d="M443 869q0 32 22.5 53t55.5 21t55.5 -21t22.5 -53q0 -31 -22.5 -52.5t-55.5 -21.5t-55.5 21.5t-22.5 52.5zM718 266l150 434h168l-294 -739l-221 457l-221 -457l-294 739h169l151 -434l195 469z" />
    <glyph glyph-name="uni1E87" unicode="&#x1e87;" horiz-adv-x="736" 
d="M288 629q0 32 22.5 53t55.5 21t55.5 -21t22.5 -53q0 -31 -22.5 -52.5t-55.5 -21.5t-55.5 21.5t-22.5 52.5zM-4 460h138l102 -254l130 289l134 -291l102 256h139l-227 -491l-148 292l-144 -292z" />
    <glyph glyph-name="uni1E88" unicode="&#x1e88;" horiz-adv-x="1042" 
d="M443 -173q0 32 22.5 53t55.5 21t55.5 -21t22.5 -53q0 -31 -22.5 -52.5t-55.5 -21.5t-55.5 21.5t-22.5 52.5zM718 266l150 434h168l-294 -739l-221 457l-221 -457l-294 739h169l151 -434l195 469z" />
    <glyph glyph-name="uni1E89" unicode="&#x1e89;" horiz-adv-x="736" 
d="M290 -165q0 32 22.5 53t55.5 21t55.5 -21t22.5 -53q0 -31 -22.5 -52.5t-55.5 -21.5t-55.5 21.5t-22.5 52.5zM-4 460h138l102 -254l130 289l134 -291l102 256h139l-227 -491l-148 292l-144 -292z" />
    <glyph glyph-name="uni1E9E" unicode="&#x1e9e;" horiz-adv-x="784" 
d="M506 -12q-64 0 -121 14t-103 38l40 118q41 -21 78 -33.5t77 -12.5q47 0 81 17t34 57q0 29 -16 45.5t-39.5 27.5t-47.5 22.5t-40 29t-16 47.5t15 48t34.5 31.5t34.5 29t15 39.5q0 29 -28 51.5t-87 22.5q-87 0 -138.5 -55t-51.5 -165l1 -362h-148v375q0 162 87.5 251.5
t255.5 89.5q129 0 197 -49.5t68 -123.5q0 -40 -14 -68t-33 -47.5t-33 -34t-14 -29.5t15 -25t37.5 -21t45 -27.5t37.5 -43t15 -69.5q0 -85 -64 -136.5t-174 -51.5z" />
    <glyph glyph-name="Ygrave" unicode="&#x1ef2;" horiz-adv-x="630" 
d="M315 774l-180 150l104 49l150 -160zM465 700h165l-241 -410v-290h-147v289l-241 411h165l149 -282z" />
    <glyph glyph-name="ygrave" unicode="&#x1ef3;" horiz-adv-x="496" 
d="M248 530l-180 150l104 49l150 -160zM504 460l-300 -680h-134l116 266l-192 414h145l115 -285l114 285h136z" />
    <glyph glyph-name="uni2010" unicode="&#x2010;" horiz-adv-x="218" 
d="M5 180v114h209v-114h-209z" />
    <glyph glyph-name="figuredash" unicode="&#x2012;" horiz-adv-x="615" 
d="M70 180v114h470v-114h-470z" />
    <glyph glyph-name="endash" unicode="&#x2013;" horiz-adv-x="770" 
d="M70 180v114h626v-114h-626z" />
    <glyph glyph-name="emdash" unicode="&#x2014;" horiz-adv-x="925" 
d="M70 180v114h783v-114h-783z" />
    <glyph glyph-name="quoteleft" unicode="&#x2018;" horiz-adv-x="314" 
d="M209 452h-139l102 248h92z" />
    <glyph glyph-name="quoteright" unicode="&#x2019;" horiz-adv-x="314" 
d="M106 700h138l-102 -248h-92z" />
    <glyph glyph-name="quotesinglbase" unicode="&#x201a;" horiz-adv-x="314" 
d="M116 80h138l-102 -248h-92z" />
    <glyph glyph-name="quotedblleft" unicode="&#x201c;" horiz-adv-x="535" 
d="M209 452h-139l102 248h92zM431 452h-139l102 248h92z" />
    <glyph glyph-name="quotedblright" unicode="&#x201d;" horiz-adv-x="535" 
d="M106 700h138l-102 -248h-92zM328 700h138l-102 -248h-92z" />
    <glyph glyph-name="quotedblbase" unicode="&#x201e;" horiz-adv-x="535" 
d="M106 80h138l-102 -248h-92zM328 80h138l-102 -248h-92z" />
    <glyph glyph-name="dagger" unicode="&#x2020;" horiz-adv-x="613" 
d="M90 540h155v160h124v-160h155v-110h-155v-580h-124v580h-155v110z" />
    <glyph glyph-name="daggerdbl" unicode="&#x2021;" horiz-adv-x="613" 
d="M90 146h155v284h-155v110h155v160h124v-160h155v-110h-155v-284h155v-110h-155v-186h-124v186h-155v110z" />
    <glyph glyph-name="bullet" unicode="&#x2022;" horiz-adv-x="300" 
d="M76 434q0 33 23 57.5t59 24.5t59 -24.5t23 -57.5t-23 -56.5t-59 -23.5t-59 23.5t-23 56.5z" />
    <glyph glyph-name="ellipsis" unicode="&#x2026;" horiz-adv-x="917" 
d="M76 60q0 33 23 57t59 24t59 -24t23 -57t-23 -57.5t-59 -24.5t-59 24.5t-23 57.5zM376 60q0 33 23 57t59 24t59 -24t23 -57t-23 -57.5t-59 -24.5t-59 24.5t-23 57.5zM676 60q0 33 23 57t59 24t59 -24t23 -57t-23 -57.5t-59 -24.5t-59 24.5t-23 57.5z" />
    <glyph glyph-name="perthousand" unicode="&#x2030;" horiz-adv-x="1301" 
d="M26 539q0 49 23.5 89t64 64t92.5 24t92.5 -24t64 -64t23.5 -89t-23.5 -89t-64 -64t-92.5 -24t-92.5 24t-64 64t-23.5 89zM624 700h132l-512 -700h-131zM134 539q0 -30 20 -52.5t52 -22.5t51.5 22.5t19.5 52.5t-19.5 52.5t-51.5 22.5t-52 -22.5t-20 -52.5zM916 161
q0 49 23.5 89t64 64t92.5 24t92.5 -24t63.5 -64t23 -89t-23 -89t-63.5 -64t-92.5 -24t-92.5 24t-64 64t-23.5 89zM484 161q0 49 23 89t63.5 64t92.5 24t92.5 -24t63.5 -64t23 -89t-23 -89t-63.5 -64t-92.5 -24t-92.5 24t-63.5 64t-23 89zM1024 161q0 -30 20 -52.5t52 -22.5
t51.5 22.5t19.5 52.5t-19.5 52.5t-51.5 22.5t-52 -22.5t-20 -52.5zM592 161q0 -30 19.5 -52.5t51.5 -22.5t51.5 22.5t19.5 52.5t-19.5 52.5t-51.5 22.5t-51.5 -22.5t-19.5 -52.5z" />
    <glyph glyph-name="uni2031" unicode="&#x2031;" horiz-adv-x="1733" 
d="M26 539q0 49 23.5 89t64 64t92.5 24t92.5 -24t64 -64t23.5 -89t-23.5 -89t-64 -64t-92.5 -24t-92.5 24t-64 64t-23.5 89zM624 700h132l-512 -700h-131zM134 539q0 -30 20 -52.5t52 -22.5t51.5 22.5t19.5 52.5t-19.5 52.5t-51.5 22.5t-52 -22.5t-20 -52.5zM1348 161
q0 49 23.5 89t64 64t92.5 24t92.5 -24t64 -64t23.5 -89t-23.5 -89t-64 -64t-92.5 -24t-92.5 24t-64 64t-23.5 89zM916 161q0 49 23.5 89t64 64t92.5 24t92.5 -24t63.5 -64t23 -89t-23 -89t-63.5 -64t-92.5 -24t-92.5 24t-64 64t-23.5 89zM484 161q0 49 23 89t63.5 64
t92.5 24t92.5 -24t63.5 -64t23 -89t-23 -89t-63.5 -64t-92.5 -24t-92.5 24t-63.5 64t-23 89zM1457 161q0 -30 19.5 -52.5t51.5 -22.5t51.5 22.5t19.5 52.5t-19.5 52.5t-51.5 22.5t-51.5 -22.5t-19.5 -52.5zM1024 161q0 -30 20 -52.5t52 -22.5t51.5 22.5t19.5 52.5
t-19.5 52.5t-51.5 22.5t-52 -22.5t-20 -52.5zM592 161q0 -30 19.5 -52.5t51.5 -22.5t51.5 22.5t19.5 52.5t-19.5 52.5t-51.5 22.5t-51.5 -22.5t-19.5 -52.5z" />
    <glyph glyph-name="guilsinglleft" unicode="&#x2039;" horiz-adv-x="350" 
d="M144 259l150 -194l-82 -59l-180 249l180 249l82 -59z" />
    <glyph glyph-name="guilsinglright" unicode="&#x203a;" horiz-adv-x="350" 
d="M206 251l-150 194l82 59l180 -249l-180 -249l-82 59z" />
    <glyph glyph-name="uni203D" unicode="&#x203d;" horiz-adv-x="606" 
d="M211 506h131l-12 -146q44 16 71 50t27 76q0 59 -37.5 88.5t-100.5 29.5q-47 0 -86 -21t-62 -65l-90 72q35 53 98 89.5t155 36.5q65 0 120.5 -26.5t90 -75t34.5 -114.5q0 -47 -20 -84.5t-52.5 -65t-72.5 -44t-81 -22.5l-7 -92h-81zM197 56q0 33 24 54.5t60 21.5
t59.5 -21.5t23.5 -54.5t-23.5 -55.5t-59.5 -22.5t-60 22.5t-24 55.5z" />
    <glyph glyph-name="fraction" unicode="&#x2044;" horiz-adv-x="722" 
d="M580 700h104l-520 -700h-104z" />
    <glyph glyph-name="uni2070" unicode="&#x2070;" horiz-adv-x="384" 
d="M24 490q0 99 46.5 158.5t121.5 59.5q77 0 123.5 -59.5t46.5 -158.5t-46.5 -158.5t-123.5 -59.5q-75 0 -121.5 59.5t-46.5 158.5zM107 490q0 -63 23 -102.5t62 -39.5t62.5 39.5t23.5 102.5t-23.5 102.5t-62.5 39.5t-62 -39.5t-23 -102.5z" />
    <glyph glyph-name="uni2074" unicode="&#x2074;" horiz-adv-x="414" 
d="M386 358h-66v-78h-89v78h-211l241 342h59v-268h66v-74zM238 563l-99 -141h99v141z" />
    <glyph glyph-name="uni2075" unicode="&#x2075;" horiz-adv-x="377" 
d="M350 413q0 -49 -23.5 -80.5t-60.5 -47t-78 -15.5q-58 0 -96.5 20t-65.5 45l40 69q23 -22 51 -38t55 -16q41 0 63 19t22 53q0 35 -25.5 52t-59.5 17q-25 0 -53.5 -6.5t-60.5 -24.5l57 238h229v-75h-166l-26 -87q17 9 35 12.5t37 3.5q51 0 88.5 -37t37.5 -102z" />
    <glyph glyph-name="uni2076" unicode="&#x2076;" horiz-adv-x="371" 
d="M196 696h110l-122 -142q8 3 17.5 4t21.5 1q32 0 61.5 -17t48.5 -48t19 -72q0 -49 -22 -83t-59 -52t-82 -18t-82 18t-59 52t-22 83q0 32 12 59t30 49zM111 422q0 -36 22.5 -57t55.5 -21t55 21t22 57t-22 58t-55 22t-55.5 -22t-22.5 -58z" />
    <glyph glyph-name="uni2077" unicode="&#x2077;" horiz-adv-x="371" 
d="M25 619v81h329l-203 -420h-92l167 339h-201z" />
    <glyph glyph-name="uni2078" unicode="&#x2078;" horiz-adv-x="350" 
d="M24 394q0 42 23 69t56 40q-28 13 -45.5 37.5t-17.5 58.5q0 50 39.5 80t94.5 30q56 0 95 -30t39 -80q0 -34 -18 -58.5t-45 -37.5q33 -13 56 -40t23 -69q0 -36 -21 -64t-55 -43.5t-74 -15.5t-74 15.5t-55 43.5t-21 64zM122 590q0 -24 15 -39t37 -15q23 0 37.5 15t14.5 39
t-14 39t-38 15t-38 -15t-14 -39zM110 406q0 -31 19.5 -47t44.5 -16q26 0 45 16t19 47q0 27 -19 45t-45 18q-25 0 -44.5 -18t-19.5 -45z" />
    <glyph glyph-name="uni2079" unicode="&#x2079;" horiz-adv-x="369" 
d="M185 284h-111l122 142q-8 -3 -18 -4t-21 -1q-32 0 -61.5 17t-48.5 48t-19 72q0 49 22.5 83t59.5 52t82 18t82 -18t58.5 -52t21.5 -83q0 -31 -12 -58t-30 -50zM269 558q0 36 -22 57t-55 21t-55.5 -21t-22.5 -57t22.5 -58t55.5 -22t55 22t22 58z" />
    <glyph glyph-name="uni2080" unicode="&#x2080;" horiz-adv-x="384" 
d="M24 210q0 99 46.5 158.5t121.5 59.5q77 0 123.5 -59.5t46.5 -158.5t-46.5 -158.5t-123.5 -59.5q-75 0 -121.5 59.5t-46.5 158.5zM107 210q0 -63 23 -102.5t62 -39.5t62.5 39.5t23.5 102.5t-23.5 102.5t-62.5 39.5t-62 -39.5t-23 -102.5z" />
    <glyph glyph-name="uni2081" unicode="&#x2081;" horiz-adv-x="346" 
d="M90 310v79l184 39v-427h-84v337z" />
    <glyph glyph-name="uni2082" unicode="&#x2082;" horiz-adv-x="391" 
d="M27 2l191 200q24 26 37.5 47t13.5 46q0 23 -15 41.5t-47 18.5q-33 0 -53 -23.5t-20 -61.5h-86q0 45 19 81t55 57.5t87 21.5q50 0 83 -20.5t49.5 -51t16.5 -61.5q0 -33 -17 -61.5t-43 -52.5l-108 -101h175v-80h-338z" />
    <glyph glyph-name="uni2083" unicode="&#x2083;" horiz-adv-x="354" 
d="M176 -9q-48 0 -82 19t-52.5 50t-18.5 67h86q0 -31 21 -47.5t50 -16.5t47 14.5t18 44.5t-23.5 48t-68.5 18v58q36 0 58 18.5t22 43.5q0 23 -13.5 36t-39.5 13q-25 0 -41.5 -15.5t-16.5 -39.5h-81q0 54 38.5 90t101.5 36q66 0 102.5 -34.5t36.5 -81.5q0 -32 -20 -55.5
t-53 -36.5q39 -12 62 -38.5t23 -67.5q0 -54 -42.5 -88.5t-113.5 -34.5z" />
    <glyph glyph-name="uni2084" unicode="&#x2084;" horiz-adv-x="417" 
d="M385 78h-66v-78h-89v78h-211l241 342h59v-268h66v-74zM238 283l-100 -141h100v141z" />
    <glyph glyph-name="uni2085" unicode="&#x2085;" horiz-adv-x="384" 
d="M352 133q0 -49 -23.5 -80.5t-60.5 -47t-78 -15.5q-58 0 -96.5 20t-65.5 45l40 69q23 -22 51 -38t55 -16q41 0 63.5 19t22.5 53q0 35 -26 52t-60 17q-25 0 -53.5 -6.5t-60.5 -24.5l57 238h229v-75h-166l-26 -87q17 9 35 12.5t37 3.5q51 0 88.5 -37t37.5 -102z" />
    <glyph glyph-name="uni2086" unicode="&#x2086;" horiz-adv-x="379" 
d="M198 416h109l-122 -142q9 3 19 4t22 1q32 0 61.5 -17t48 -48t18.5 -72q0 -49 -21.5 -83t-58.5 -52t-82 -18t-82 18t-59.5 52t-22.5 83q0 32 12 59t30 49zM114 142q0 -36 22.5 -57t55.5 -21t54.5 21t21.5 57t-21.5 58t-54.5 22t-55.5 -22t-22.5 -58z" />
    <glyph glyph-name="uni2087" unicode="&#x2087;" horiz-adv-x="375" 
d="M28 339v81h328l-202 -420h-92l166 339h-200z" />
    <glyph glyph-name="uni2088" unicode="&#x2088;" horiz-adv-x="354" 
d="M28 114q0 42 23 69t55 40q-27 13 -45 37.5t-18 58.5q0 50 39.5 80t94.5 30q56 0 95.5 -30t39.5 -80q0 -34 -18 -58.5t-46 -37.5q32 -13 55 -40.5t23 -68.5q0 -36 -20.5 -63.5t-54.5 -43.5t-74 -16t-74 15.5t-54.5 43.5t-20.5 64zM125 310q0 -24 15 -39t37 -15q23 0 38 15
t15 39t-14.5 39t-38.5 15t-38 -15t-14 -39zM114 126q0 -31 19 -47t44 -16q26 0 45 16t19 47q0 27 -19 45t-45 18q-25 0 -44 -18t-19 -45z" />
    <glyph glyph-name="uni2089" unicode="&#x2089;" horiz-adv-x="382" 
d="M181 4h-110l121 142q-9 -3 -18.5 -4t-20.5 -1q-32 0 -61.5 17t-48 48t-18.5 72q0 49 22 83t59 52t82 18t82 -18t58.5 -52t21.5 -83q0 -31 -12 -58t-30 -50zM265 278q0 36 -22 57t-55 21t-55.5 -21t-22.5 -57t22.5 -58t55.5 -22t55 22t22 58z" />
    <glyph glyph-name="Euro" unicode="&#x20ac;" horiz-adv-x="632" 
d="M32 261v73h60v16q0 20 1 39h-51v73h63q17 75 58 132.5t101.5 90t136.5 32.5q41 0 78.5 -10.5t71.5 -30.5v-143q-64 62 -150 62q-58 0 -101 -34.5t-63 -98.5h299v-73h-313q-2 -19 -2 -39v-16h294v-73h-284q17 -75 62 -115.5t108 -40.5q86 0 150 62v-143q-69 -40 -150 -40
q-80 0 -142.5 35.5t-103 97.5t-55.5 144h-68z" />
    <glyph glyph-name="trademark" unicode="&#x2122;" horiz-adv-x="721" 
d="M642 718l52 -368h-76l-22 191l-101 -159l-101 159l-22 -191h-76l52 368l147 -226zM30 635v65h262v-65h-95v-285h-72v285h-95z" />
    <glyph glyph-name="uni2150" unicode="&#x2150;" horiz-adv-x="912" 
d="M26 584v78l184 40v-428h-84v336zM594 700h105l-520 -700h-105zM560 339v81h328l-203 -420h-92l167 339h-200z" />
    <glyph glyph-name="uni2151" unicode="&#x2151;" horiz-adv-x="854" 
d="M26 584v78l184 40v-428h-84v336zM590 700h104l-520 -700h-104zM664 4h-110l121 142q-8 -3 -17.5 -4t-21.5 -1q-32 0 -61.5 17t-48 48t-18.5 72q0 49 22 83t58.5 52t81.5 18t82 -18t59 -52t22 -83q0 -31 -12.5 -58t-30.5 -50zM748 278q0 36 -22.5 57t-55.5 21t-55.5 -21
t-22.5 -57t22.5 -58t55.5 -22t55.5 22t22.5 58z" />
    <glyph glyph-name="uni2152" unicode="&#x2152;" horiz-adv-x="1171" 
d="M26 584v78l184 40v-428h-84v336zM590 700h104l-520 -700h-104zM532 310v79l184 39v-427h-83v337zM802 210q0 99 46.5 158.5t121.5 59.5q77 0 123.5 -59.5t46.5 -158.5t-46.5 -158.5t-123.5 -59.5q-75 0 -121.5 59.5t-46.5 158.5zM885 210q0 -63 23 -102.5t62 -39.5
t62.5 39.5t23.5 102.5t-23.5 102.5t-62.5 39.5t-62 -39.5t-23 -102.5z" />
    <glyph glyph-name="onethird" unicode="&#x2153;" horiz-adv-x="837" 
d="M26 584v78l184 40v-428h-84v336zM590 700h104l-520 -700h-104zM658 -9q-48 0 -82.5 19t-53 50t-18.5 67h86q0 -31 20.5 -47.5t49.5 -16.5t47.5 14.5t18.5 44.5t-23 48t-68 18v58q36 0 57.5 18.5t21.5 43.5q0 23 -13 36t-39 13q-25 0 -42 -15.5t-17 -39.5h-81
q0 54 38.5 90t101.5 36q66 0 102 -34.5t36 -81.5q0 -32 -19.5 -55.5t-52.5 -36.5q39 -12 61.5 -38.5t22.5 -67.5q0 -54 -41.5 -88.5t-112.5 -34.5z" />
    <glyph glyph-name="twothirds" unicode="&#x2154;" horiz-adv-x="969" 
d="M30 282l190 200q24 26 38 47t14 46q0 23 -15 41.5t-47 18.5q-33 0 -53.5 -23.5t-20.5 -61.5h-85q0 45 19 81t55 57.5t87 21.5q50 0 83 -20.5t49 -51t16 -61.5q0 -33 -16 -61.5t-42 -52.5l-109 -101h175v-80h-338zM730 700h104l-520 -700h-104zM790 -9q-48 0 -82.5 19
t-53 50t-18.5 67h86q0 -31 20.5 -47.5t49.5 -16.5t47.5 14.5t18.5 44.5t-23.5 48t-68.5 18v58q36 0 58 18.5t22 43.5q0 23 -13 36t-39 13q-25 0 -42.5 -15.5t-17.5 -39.5h-80q0 54 38.5 90t101.5 36q66 0 102 -34.5t36 -81.5q0 -32 -19.5 -55.5t-52.5 -36.5q38 -12 61 -38.5
t23 -67.5q0 -54 -41.5 -88.5t-112.5 -34.5z" />
    <glyph glyph-name="uni2155" unicode="&#x2155;" horiz-adv-x="826" 
d="M26 584v78l184 40v-428h-84v336zM590 700h104l-520 -700h-104zM630 343l-27 -88q17 9 35 13t37 4q51 0 89 -37t38 -102q0 -49 -24 -80.5t-61 -47t-78 -15.5q-58 0 -96.5 20t-65.5 45l41 69q23 -22 51 -38t55 -16q41 0 62.5 19t21.5 53q0 35 -25 52t-59 17q-25 0 -54 -6.5
t-61 -24.5l57 238h230v-75h-166z" />
    <glyph glyph-name="uni2156" unicode="&#x2156;" horiz-adv-x="964" 
d="M30 282l190 200q24 26 38 47t14 46q0 23 -15 41.5t-47 18.5q-33 0 -53.5 -23.5t-20.5 -61.5h-85q0 45 19 81t55 57.5t87 21.5q50 0 83 -20.5t49 -51t16 -61.5q0 -33 -16 -61.5t-42 -52.5l-109 -101h175v-80h-338zM730 700h104l-520 -700h-104zM762 343l-27 -87
q17 9 34.5 12.5t36.5 3.5q34 0 63 -17t47 -48t18 -74q0 -49 -24 -80.5t-61.5 -47t-78.5 -15.5q-58 0 -96.5 20t-65.5 45l41 69q23 -22 51 -38t55 -16q41 0 63 19t22 53q0 35 -25.5 52t-59.5 17q-25 0 -54 -6.5t-61 -24.5l58 238h229v-75h-165z" />
    <glyph glyph-name="uni2157" unicode="&#x2157;" horiz-adv-x="901" 
d="M178 271q-48 0 -82.5 19t-53 50t-18.5 67h86q0 -31 21 -47.5t50 -16.5t47.5 14.5t18.5 44.5t-23.5 48t-68.5 18v58q36 0 58 18.5t22 43.5q0 23 -13.5 36t-39.5 13q-25 0 -42 -15.5t-17 -39.5h-81q0 54 39 90t102 36q66 0 102 -34.5t36 -81.5q0 -32 -19.5 -55.5
t-52.5 -36.5q38 -12 61 -38.5t23 -67.5q0 -54 -42 -88.5t-113 -34.5zM668 700h104l-520 -700h-104zM695 343l-26 -87q17 9 34.5 12.5t36.5 3.5q51 0 89 -37t38 -102q0 -49 -24 -80.5t-61 -47t-78 -15.5q-58 0 -96.5 20t-65.5 45l40 69q23 -22 51 -38t55 -16q41 0 63.5 19
t22.5 53q0 35 -26 52t-60 17q-25 0 -53.5 -6.5t-60.5 -24.5l58 238h229v-75h-166z" />
    <glyph glyph-name="uni2158" unicode="&#x2158;" horiz-adv-x="971" 
d="M721 700h104l-520 -700h-104zM390 358h-66v-78h-89v78h-211l241 342h59v-268h66v-74zM243 563l-100 -141h100v141zM770 342l-27 -86q17 9 34.5 12.5t36.5 3.5q34 0 63 -17t47 -48t18 -74q0 -49 -24 -80.5t-61.5 -47t-78.5 -15.5q-58 0 -96.5 20t-65.5 45l41 67
q23 -22 51 -37t55 -15q41 0 63 18.5t22 52.5q0 35 -25.5 52t-59.5 17q-25 0 -54 -6t-61 -24l58 238h229v-76h-165z" />
    <glyph glyph-name="uni2159" unicode="&#x2159;" horiz-adv-x="829" 
d="M26 584v78l184 40v-428h-84v336zM603 700h104l-520 -700h-104zM648 416h109l-122 -142q9 3 19 4t22 1q32 0 61.5 -17t48 -48t18.5 -72q0 -49 -22 -83t-59 -52t-82 -18t-82 18t-59 52t-22 83q0 32 12 59t30 49zM564 142q0 -36 22 -57t55 -21t55 21t22 57t-22 58t-55 22
t-55 -22t-22 -58z" />
    <glyph glyph-name="uni215A" unicode="&#x215a;" horiz-adv-x="908" 
d="M694 700h105l-520 -700h-105zM354 413q0 -49 -23.5 -80.5t-60.5 -47t-78 -15.5q-58 0 -96.5 20t-65.5 45l40 69q23 -22 51 -38t55 -16q41 0 63.5 19t22.5 53q0 35 -26 52t-60 17q-25 0 -53.5 -6.5t-60.5 -24.5l58 238h229v-75h-166l-26 -87q17 9 34.5 12.5t36.5 3.5
q51 0 88.5 -37t37.5 -102zM726 416h110l-121 -142q8 3 17.5 4t21.5 1q32 0 61.5 -17t48 -48t18.5 -72q0 -49 -22 -83t-59 -52t-82 -18t-82 18t-59 52t-22 83q0 32 12.5 59t30.5 49zM641 142q0 -36 22.5 -57t55.5 -21t55 21t22 57t-22 58t-55 22t-55.5 -22t-22.5 -58z" />
    <glyph glyph-name="oneeighth" unicode="&#x215b;" horiz-adv-x="851" 
d="M26 584v78l184 40v-428h-84v336zM603 700h104l-520 -700h-104zM522 114q0 42 23 69t56 40q-28 13 -45.5 37.5t-17.5 58.5q0 50 39.5 80t94.5 30q56 0 95 -30t39 -80q0 -34 -18 -58.5t-45 -37.5q33 -13 56 -40t23 -69q0 -36 -21 -63.5t-55 -43.5t-74 -16t-74 16t-55 43.5
t-21 63.5zM620 310q0 -24 15 -39t37 -15q23 0 38 15t15 39t-14.5 39t-38.5 15t-38 -15t-14 -39zM608 126q0 -31 19.5 -47t44.5 -16q26 0 45 16t19 47q0 27 -19 45t-45 18q-25 0 -44.5 -18t-19.5 -45z" />
    <glyph glyph-name="threeeighths" unicode="&#x215c;" horiz-adv-x="921" 
d="M178 271q-48 0 -82.5 19t-53 50t-18.5 67h86q0 -31 21 -47.5t50 -16.5t47.5 14.5t18.5 44.5t-23.5 48t-68.5 18v58q36 0 58 18.5t22 43.5q0 23 -13.5 36t-39.5 13q-25 0 -42 -15.5t-17 -39.5h-81q0 54 39 90t102 36q66 0 102 -34.5t36 -81.5q0 -32 -19.5 -55.5
t-52.5 -36.5q38 -12 61 -38.5t23 -67.5q0 -54 -42 -88.5t-113 -34.5zM672 700h104l-520 -700h-104zM592 114q0 42 23 69t56 40q-28 13 -46 37.5t-18 58.5q0 50 40 80t95 30q56 0 95 -30t39 -80q0 -34 -18 -58.5t-45 -37.5q32 -13 55 -40t23 -69q0 -36 -20.5 -63.5
t-54.5 -43.5t-74 -16t-74 16t-55 43.5t-21 63.5zM689 310q0 -24 15.5 -39t37.5 -15q23 0 37.5 15t14.5 39t-14 39t-38 15t-38.5 -15t-14.5 -39zM678 126q0 -31 19.5 -47t44.5 -16q26 0 44.5 16t18.5 47q0 27 -18.5 45t-44.5 18q-25 0 -44.5 -18t-19.5 -45z" />
    <glyph glyph-name="fiveeighths" unicode="&#x215d;" horiz-adv-x="942" 
d="M694 700h105l-520 -700h-105zM350 413q0 -49 -23.5 -80.5t-60.5 -47t-78 -15.5q-58 0 -96.5 20t-65.5 45l40 69q23 -22 51 -38t55 -16q41 0 63 19t22 53q0 35 -25.5 52t-59.5 17q-25 0 -53.5 -6.5t-60.5 -24.5l57 238h229v-75h-166l-26 -87q17 9 35 12.5t37 3.5
q51 0 88.5 -37t37.5 -102zM614 114q0 42 23 69t56 40q-28 13 -46 37.5t-18 58.5q0 50 40 80t95 30q56 0 95 -30t39 -80q0 -34 -18 -58.5t-45 -37.5q32 -13 55 -40t23 -69q0 -36 -20.5 -63.5t-54.5 -43.5t-74 -16t-74 16t-55 43.5t-21 63.5zM710 310q0 -24 16 -39t38 -15
q23 0 37.5 15t14.5 39t-14 39t-38 15t-39 -15t-15 -39zM700 126q0 -31 19.5 -47t44.5 -16q26 0 44.5 16t18.5 47q0 27 -18.5 45t-44.5 18q-25 0 -44.5 -18t-19.5 -45z" />
    <glyph glyph-name="seveneighths" unicode="&#x215e;" horiz-adv-x="832" 
d="M580 700h104l-520 -700h-104zM25 619v81h329l-203 -420h-92l167 339h-201zM504 114q0 42 23 69t56 40q-28 13 -46 37.5t-18 58.5q0 50 40 80t95 30q56 0 95 -30t39 -80q0 -34 -18 -58.5t-45 -37.5q32 -13 55 -40t23 -69q0 -36 -20.5 -63.5t-54.5 -43.5t-74 -16t-74 16
t-55 43.5t-21 63.5zM600 310q0 -24 16 -39t38 -15q23 0 37.5 15t14.5 39t-14 39t-38 15t-39 -15t-15 -39zM590 126q0 -31 19.5 -47t44.5 -16q26 0 44.5 16t18.5 47q0 27 -18.5 45t-44.5 18q-25 0 -44.5 -18t-19.5 -45z" />
    <glyph glyph-name="partialdiff" unicode="&#x2202;" horiz-adv-x="594" 
d="M296 -14q-74 0 -131.5 32.5t-90 90.5t-32.5 132q0 67 26.5 118t73.5 80t109 29q67 0 128 -37q-44 66 -103 127.5t-136 121.5l94 70q162 -151 241 -276.5t79 -232.5q0 -74 -33.5 -131.5t-91.5 -90.5t-133 -33zM297 102q54 0 88 36.5t34 91.5q0 57 -34.5 93.5t-87.5 36.5
q-52 0 -87 -36.5t-35 -93.5q0 -55 34 -91.5t88 -36.5z" />
    <glyph glyph-name="emptyset" unicode="&#x2205;" horiz-adv-x="600" 
d="M128 24l-48 48l42 42q-20 27 -31 59.5t-11 68.5q0 61 30 110.5t80 79.5t110 30q36 0 69 -11.5t60 -31.5l41 41l48 -48l-41 -41q19 -27 30 -60t11 -69q0 -60 -29.5 -109.5t-78.5 -79t-110 -29.5q-36 0 -69 11t-61 31zM169 242q0 -35 17 -64l179 177q-30 18 -65 18
q-36 0 -65.5 -17.5t-47.5 -47.5t-18 -66zM300 112q37 0 66 18t46.5 48t17.5 64q0 35 -17 65l-179 -177q31 -18 66 -18z" />
    <glyph glyph-name="product" unicode="&#x220f;" horiz-adv-x="600" 
d="M138 0v596h-80v104h484v-104h-80v-596h-110v596h-104v-596h-110z" />
    <glyph glyph-name="summation" unicode="&#x2211;" horiz-adv-x="600" 
d="M100 0l170 352l-170 348h400v-108h-222l116 -240l-116 -244h222v-108h-400z" />
    <glyph glyph-name="minus" unicode="&#x2212;" horiz-adv-x="592" 
d="M62 180v114h469v-114h-469z" />
    <glyph glyph-name="uni2215" unicode="&#x2215;" horiz-adv-x="580" 
d="M440 700h126l-420 -850h-131z" />
    <glyph glyph-name="uni2219" unicode="&#x2219;" horiz-adv-x="315" 
d="M76 434q0 33 23 57.5t59 24.5t59 -24.5t23 -57.5t-23 -56.5t-59 -23.5t-59 23.5t-23 56.5z" />
    <glyph glyph-name="radical" unicode="&#x221a;" horiz-adv-x="600" 
d="M244 -197l-122 351l-65 -18l-27 88l150 46l49 -160l121 590h168v-106h-91z" />
    <glyph glyph-name="infinity" unicode="&#x221e;" horiz-adv-x="789" 
d="M204 34q-48 0 -89.5 27.5t-67 72t-25.5 96.5t25.5 96t67 71t89.5 27q95 0 192 -120q96 120 190 120q49 0 90 -27t66 -71t25 -96t-25 -96.5t-66 -72t-90 -27.5t-95 30t-95 90q-97 -120 -192 -120zM222 138q29 0 58 24.5t56 67.5q-56 90 -114 90q-33 0 -59 -27t-26 -63
q0 -24 12 -45t31.5 -34t41.5 -13zM570 138q33 0 57.5 28t24.5 64t-24.5 63t-57.5 27q-60 0 -116 -90q27 -43 57.5 -67.5t58.5 -24.5z" />
    <glyph glyph-name="integral" unicode="&#x222b;" horiz-adv-x="600" 
d="M196 -200q-29 0 -55.5 11.5t-60.5 38.5l54 93q15 -15 25 -20.5t19 -5.5q21 0 34 20t16 56l34 635q5 77 48.5 122t109.5 43q29 0 55.5 -11t60.5 -38l-54 -94q-15 15 -25 20.5t-19 5.5q-21 0 -33.5 -20t-15.5 -56l-36 -635q-4 -76 -47.5 -121t-109.5 -44z" />
    <glyph glyph-name="approxequal" unicode="&#x2248;" horiz-adv-x="600" 
d="M402 337q-28 0 -59 12.5t-66 36.5q-27 18 -47.5 27t-40.5 9q-28 0 -39 -20.5t2 -56.5l-106 5q-12 42 5 80.5t54 63t85 24.5q58 0 128 -48q26 -18 44.5 -26t31.5 -8q23 0 30.5 21.5t-4.5 52.5l108 -6q11 -44 -3.5 -82t-47 -61.5t-75.5 -23.5zM402 87q-28 0 -59 12.5
t-66 36.5q-27 18 -47.5 27t-40.5 9q-28 0 -39 -20.5t2 -56.5l-106 5q-12 42 5 80.5t54 63t85 24.5q58 0 128 -48q26 -18 44.5 -26t31.5 -8q23 0 30.5 21.5t-4.5 52.5l108 -6q11 -44 -3.5 -82t-47 -61.5t-75.5 -23.5z" />
    <glyph glyph-name="notequal" unicode="&#x2260;" horiz-adv-x="600" 
d="M58 114v114h169l38 76h-207v114h264l56 113l104 -46l-33 -67h115v-114h-172l-38 -76h210v-114h-266l-53 -106l-105 46l30 60h-112z" />
    <glyph glyph-name="lessequal" unicode="&#x2264;" horiz-adv-x="600" 
d="M561 148l-510 216v84l510 216v-128l-319 -126l319 -134v-128zM51 4v115h513v-115h-513z" />
    <glyph glyph-name="greaterequal" unicode="&#x2265;" horiz-adv-x="600" 
d="M65 148v128l319 126l-319 134v128l510 -216v-84zM65 4v115h512v-115h-512z" />
    <glyph glyph-name="lozenge" unicode="&#x25ca;" horiz-adv-x="600" 
d="M306 15l-206 341l206 340l194 -340zM302 220l78 136l-78 135l-82 -135z" />
    <glyph glyph-name="uniFF10" unicode="&#xff10;" horiz-adv-x="615" 
d="M25 350q0 111 35.5 192.5t99 125.5t147.5 44q86 0 149.5 -44t98 -125.5t34.5 -192.5t-34.5 -192t-98 -125.5t-149.5 -44.5q-84 0 -147.5 44.5t-99 125.5t-35.5 192zM164 350q0 -106 39.5 -171t103.5 -65q65 0 103.5 65t38.5 171q0 107 -38.5 171.5t-103.5 64.5
q-64 0 -103.5 -64.5t-39.5 -171.5z" />
    <glyph glyph-name="uniFF11" unicode="&#xff11;" horiz-adv-x="615" 
d="M111 517v129l307 66v-712h-140v560z" />
    <glyph glyph-name="uniFF12" unicode="&#xff12;" horiz-adv-x="615" 
d="M17 0l317 332q40 42 63 78t23 78q0 38 -25.5 68.5t-78.5 30.5q-54 0 -88 -39t-34 -102h-142q0 75 31.5 135.5t91.5 96t145 35.5q84 0 139 -33.5t82 -84t27 -103.5q0 -55 -27 -102t-71 -87l-182 -171h293v-132h-564z" />
    <glyph glyph-name="uniFF13" unicode="&#xff13;" horiz-adv-x="615" 
d="M311 -14q-79 0 -136.5 31.5t-88 82.5t-30.5 111h142q0 -51 35 -78.5t83 -27.5t78 25t30 74q0 50 -39 79t-113 29v98q62 0 97 30.5t35 71.5q0 36 -21 59t-65 23q-42 0 -70.5 -25.5t-28.5 -64.5h-133q0 60 29 107t81.5 74t121.5 27q73 0 124.5 -26t78.5 -69.5t27 -96.5
q0 -54 -33 -92.5t-89 -60.5q65 -21 103.5 -64.5t38.5 -113.5q0 -60 -31.5 -106t-89 -71.5t-136.5 -25.5z" />
    <glyph glyph-name="uniFF14" unicode="&#xff14;" horiz-adv-x="615" 
d="M592 129h-100v-129h-150v129h-328l378 571h100v-448h100v-123zM356 472l-156 -236h156v236z" />
    <glyph glyph-name="uniFF15" unicode="&#xff15;" horiz-adv-x="615" 
d="M574 226q0 -61 -23 -106t-62 -74t-87.5 -43.5t-99.5 -14.5q-97 0 -161.5 32.5t-109.5 75.5l68 112q36 -39 84 -63.5t93 -24.5q67 0 104.5 30.5t37.5 87.5q0 38 -20 64t-52.5 39.5t-69.5 13.5q-43 0 -91 -9.5t-101 -39.5l96 394h382v-126h-276l-44 -144q27 15 57.5 21
t62.5 6q57 0 105 -28t77.5 -79.5t29.5 -123.5z" />
    <glyph glyph-name="uniFF16" unicode="&#xff16;" horiz-adv-x="615" 
d="M318 698h182l-204 -241q15 6 31.5 8.5t36.5 2.5q54 0 103 -28t80 -79t31 -120q0 -82 -36.5 -139t-98 -86.5t-136.5 -29.5t-136.5 29.5t-98 86.5t-36.5 139q0 53 20 98t50 82zM178 241q0 -58 37 -94.5t92 -36.5q56 0 92.5 36.5t36.5 94.5q0 59 -36.5 96t-92.5 37
q-55 0 -92 -37t-37 -96z" />
    <glyph glyph-name="uniFF17" unicode="&#xff17;" horiz-adv-x="615" 
d="M44 566v134h548l-338 -700h-154l278 566h-334z" />
    <glyph glyph-name="uniFF18" unicode="&#xff18;" horiz-adv-x="615" 
d="M68 190q0 70 37.5 114.5t91.5 66.5q-46 22 -75 62t-29 98q0 56 30 97t80.5 63.5t112.5 22.5t113 -22.5t81 -63.5t30 -97q0 -58 -29.5 -98t-75.5 -62q54 -22 91.5 -66.5t37.5 -114.5q0 -61 -34 -107t-90.5 -71.5t-123.5 -25.5t-123.5 25.5t-90.5 71.5t-34 107zM228 517
q0 -39 25.5 -64t62.5 -25t62.5 25t25.5 64t-24.5 64t-63.5 25t-63.5 -25t-24.5 -64zM210 211q0 -51 32 -79t74 -28t74.5 28t32.5 79q0 29 -15 53t-39.5 38t-52.5 14t-52 -14t-39 -38t-15 -53z" />
    <glyph glyph-name="uniFF19" unicode="&#xff19;" horiz-adv-x="615" 
d="M296 2h-182l204 241q-15 -6 -31.5 -8.5t-36.5 -2.5q-54 0 -103 28t-80 79t-31 120q0 82 36.5 139t98 86.5t136.5 29.5t136.5 -29.5t98 -86.5t36.5 -139q0 -52 -20 -97t-50 -83zM436 459q0 59 -36.5 95t-92.5 36q-55 0 -92 -36t-37 -95q0 -58 37 -95.5t92 -37.5
q56 0 92.5 37.5t36.5 95.5z" />
    <glyph glyph-name="a.alt" 
d="M33 230q0 77 31 130.5t81.5 81.5t108.5 28q51 0 92.5 -23t67.5 -66v79h128v-460h-128v79q-26 -43 -67.5 -66t-92.5 -23q-58 0 -108.5 28t-81.5 82t-31 130zM168 230q0 -61 36.5 -96.5t87.5 -35.5q28 0 55.5 15.5t46 45t18.5 71.5t-18.5 71.5t-46 45t-55.5 15.5
q-51 0 -87.5 -35t-36.5 -97z" />
    <glyph glyph-name="agrave.alt" 
d="M126 680l104 49l150 -160l-74 -39zM33 230q0 77 31 130.5t81.5 81.5t108.5 28q51 0 92.5 -23t67.5 -66v79h128v-460h-128v79q-26 -43 -67.5 -66t-92.5 -23q-58 0 -108.5 28t-81.5 82t-31 130zM168 230q0 -61 36.5 -96.5t87.5 -35.5q28 0 55.5 15.5t46 45t18.5 71.5
t-18.5 71.5t-46 45t-55.5 15.5q-51 0 -87.5 -35t-36.5 -97z" />
    <glyph glyph-name="aacute.alt" 
d="M432 680l-180 -150l-73 39l150 160zM33 230q0 77 31 130.5t81.5 81.5t108.5 28q51 0 92.5 -23t67.5 -66v79h128v-460h-128v79q-26 -43 -67.5 -66t-92.5 -23q-58 0 -108.5 28t-81.5 82t-31 130zM168 230q0 -61 36.5 -96.5t87.5 -35.5q28 0 55.5 15.5t46 45t18.5 71.5
t-18.5 71.5t-46 45t-55.5 15.5q-51 0 -87.5 -35t-36.5 -97z" />
    <glyph glyph-name="acircumflex.alt" 
d="M304 618l-96 -88l-89 62l185 140l188 -140l-90 -62zM33 230q0 77 31 130.5t81.5 81.5t108.5 28q51 0 92.5 -23t67.5 -66v79h128v-460h-128v79q-26 -43 -67.5 -66t-92.5 -23q-58 0 -108.5 28t-81.5 82t-31 130zM168 230q0 -61 36.5 -96.5t87.5 -35.5q28 0 55.5 15.5t46 45
t18.5 71.5t-18.5 71.5t-46 45t-55.5 15.5q-51 0 -87.5 -35t-36.5 -97z" />
    <glyph glyph-name="atilde.alt" 
d="M122 588q8 37 40.5 63.5t75.5 26.5q25 0 41 -7.5t29 -17.5t27 -17.5t35 -7.5q17 0 32.5 14t30.5 38l63 -66q-8 -18 -26.5 -37t-44.5 -32t-55 -13q-27 0 -48.5 13t-41.5 26t-44 13q-19 0 -29.5 -9.5t-14.5 -21.5t-4 -20zM33 230q0 77 31 130.5t81.5 81.5t108.5 28
q51 0 92.5 -23t67.5 -66v79h128v-460h-128v79q-26 -43 -67.5 -66t-92.5 -23q-58 0 -108.5 28t-81.5 82t-31 130zM168 230q0 -61 36.5 -96.5t87.5 -35.5q28 0 55.5 15.5t46 45t18.5 71.5t-18.5 71.5t-46 45t-55.5 15.5q-51 0 -87.5 -35t-36.5 -97z" />
    <glyph glyph-name="adieresis.alt" 
d="M338 604q0 32 22.5 53t55.5 21t55.5 -21t22.5 -53q0 -31 -22.5 -52.5t-55.5 -21.5t-55.5 21.5t-22.5 52.5zM107 604q0 32 22.5 53t55.5 21t55.5 -21t22.5 -53q0 -31 -22.5 -52.5t-55.5 -21.5t-55.5 21.5t-22.5 52.5zM33 230q0 77 31 130.5t81.5 81.5t108.5 28
q51 0 92.5 -23t67.5 -66v79h128v-460h-128v79q-26 -43 -67.5 -66t-92.5 -23q-58 0 -108.5 28t-81.5 82t-31 130zM168 230q0 -61 36.5 -96.5t87.5 -35.5q28 0 55.5 15.5t46 45t18.5 71.5t-18.5 71.5t-46 45t-55.5 15.5q-51 0 -87.5 -35t-36.5 -97z" />
    <glyph glyph-name="aring.alt" 
d="M182 641q0 50 35 80.5t83 30.5t83 -30.5t35 -80.5q0 -49 -35 -80t-83 -31t-83 31t-35 80zM252 641q0 -23 14.5 -36t33.5 -13t33.5 13t14.5 36t-14.5 36t-33.5 13t-33.5 -13t-14.5 -36zM33 230q0 77 31 130.5t81.5 81.5t108.5 28q51 0 92.5 -23t67.5 -66v79h128v-460h-128
v79q-26 -43 -67.5 -66t-92.5 -23q-58 0 -108.5 28t-81.5 82t-31 130zM168 230q0 -61 36.5 -96.5t87.5 -35.5q28 0 55.5 15.5t46 45t18.5 71.5t-18.5 71.5t-46 45t-55.5 15.5q-51 0 -87.5 -35t-36.5 -97z" />
    <glyph glyph-name="amacron.alt" 
d="M117 530v115h365v-115h-365zM33 230q0 77 31 130.5t81.5 81.5t108.5 28q51 0 92.5 -23t67.5 -66v79h128v-460h-128v79q-26 -43 -67.5 -66t-92.5 -23q-58 0 -108.5 28t-81.5 82t-31 130zM168 230q0 -61 36.5 -96.5t87.5 -35.5q28 0 55.5 15.5t46 45t18.5 71.5t-18.5 71.5
t-46 45t-55.5 15.5q-51 0 -87.5 -35t-36.5 -97z" />
    <glyph glyph-name="abreve.alt" 
d="M126 675h92q0 -24 17.5 -44t53.5 -20t54 20t18 44h91q0 -39 -19 -72t-55 -53t-89 -20q-52 0 -88.5 20t-55.5 53t-19 72zM33 230q0 77 31 130.5t81.5 81.5t108.5 28q51 0 92.5 -23t67.5 -66v79h128v-460h-128v79q-26 -43 -67.5 -66t-92.5 -23q-58 0 -108.5 28t-81.5 82
t-31 130zM168 230q0 -61 36.5 -96.5t87.5 -35.5q28 0 55.5 15.5t46 45t18.5 71.5t-18.5 71.5t-46 45t-55.5 15.5q-51 0 -87.5 -35t-36.5 -97z" />
    <glyph glyph-name="aogonek.alt" 
d="M33 230q0 77 31 130.5t81.5 81.5t108.5 28q51 0 92.5 -23t67.5 -66v79h128v-460h-22q-39 -19 -61.5 -45t-22.5 -51q0 -40 38 -40q17 0 28.5 5t21.5 15l34 -64q-11 -15 -34.5 -27.5t-62.5 -12.5q-52 0 -85.5 26.5t-33.5 73.5q0 37 26.5 66.5t65.5 53.5h-20v79
q-26 -43 -67.5 -66t-92.5 -23q-58 0 -108.5 28t-81.5 82t-31 130zM168 230q0 -61 36.5 -96.5t87.5 -35.5q28 0 55.5 15.5t46 45t18.5 71.5t-18.5 71.5t-46 45t-55.5 15.5q-51 0 -87.5 -35t-36.5 -97z" />
    </font>
</defs>
</svg>
