<?xml version="1.0" standalone="no"?>
<!DOCTYPE svg PUBLIC "-//W3C//DTD SVG 1.1//EN" "http://www.w3.org/Graphics/SVG/1.1/DTD/svg11.dtd" >
<svg xmlns="http://www.w3.org/2000/svg" xmlns:xlink="http://www.w3.org/1999/xlink" version="1.1">
<metadata>
Created by FontForge 20170731 at Tue Dec 31 07:18:15 2019
 By Aleksey,,,
Copyright 2019 indestructible type* (https://github.com/indestructible-type)
</metadata>
<defs>
<font id="Jost-Bold" horiz-adv-x="575" >
  <font-face 
    font-family="Jost*"
    font-weight="700"
    font-stretch="normal"
    units-per-em="1000"
    panose-1="0 0 0 0 0 0 0 0 0 0"
    ascent="800"
    descent="-200"
    x-height="460"
    cap-height="700"
    bbox="-164 -365 1807 1051"
    underline-thickness="50"
    underline-position="-175"
    unicode-range="U+000D-FF19"
  />
<missing-glyph horiz-adv-x="500" 
d="M50 -200h400v1000h-400v-1000zM100 -150v900h300v-900h-300z" />
    <glyph glyph-name=".notdef" horiz-adv-x="500" 
d="M50 -200h400v1000h-400v-1000zM100 -150v900h300v-900h-300z" />
    <glyph glyph-name="uni0000" horiz-adv-x="300" 
 />
    <glyph glyph-name="uni0000" horiz-adv-x="300" 
 />
    <glyph glyph-name="uni000D" unicode="&#xd;" horiz-adv-x="300" 
 />
    <glyph glyph-name="space" unicode=" " horiz-adv-x="300" 
 />
    <glyph glyph-name="exclam" unicode="!" horiz-adv-x="343" 
d="M78 700h188l-33 -469h-122zM78 62q0 38 26.5 62t67.5 24t67.5 -24t26.5 -62t-26.5 -62t-67.5 -24t-67.5 24t-26.5 62z" />
    <glyph glyph-name="quotedbl" unicode="&#x22;" horiz-adv-x="518" 
d="M105 700h161l-106 -319h-99zM316 700h161l-106 -319h-99z" />
    <glyph glyph-name="numbersign" unicode="#" horiz-adv-x="667" 
d="M35 172v121h98l29 119h-87v121h116l41 167h132l-41 -167h110l41 167h131l-41 -167h68v-121h-97l-29 -119h86v-121h-115l-42 -172h-131l41 172h-109l-42 -172h-132l42 172h-69zM257 287h123l32 131h-123z" />
    <glyph glyph-name="dollar" unicode="$" horiz-adv-x="621" 
d="M449 489q-22 44 -53 70t-70 26q-41 0 -59.5 -18t-18.5 -45q0 -29 22.5 -47.5t59 -31.5t78.5 -29q48 -17 88.5 -45t65 -70t24.5 -103q0 -85 -54.5 -137t-149.5 -65l4 -106h-124l4 107q-53 9 -99 34t-80.5 61t-53.5 77l120 84q36 -63 75 -94.5t94 -31.5q86 0 86 69
q0 28 -19 46t-52 32t-74 30q-26 10 -58.5 26.5t-62 42t-49 62.5t-19.5 88q0 44 24 82.5t67 65.5t101 37l-4 112h124l-4 -113q78 -13 122.5 -54t71.5 -89z" />
    <glyph glyph-name="percent" unicode="%" horiz-adv-x="919" 
d="M22 534q0 51 25 93t68 67t97 25t97 -25t67.5 -67t24.5 -93t-24.5 -93t-67.5 -67t-97 -25t-97 25t-68 67t-25 93zM650 700h157l-538 -700h-156zM147 534q0 -27 18.5 -46.5t46.5 -19.5q29 0 46.5 19.5t17.5 46.5t-17.5 47t-46.5 20q-28 0 -46.5 -20t-18.5 -47zM519 166
q0 51 25 93t67.5 67t96.5 25t97 -25t67.5 -67t24.5 -93t-24.5 -93t-67.5 -67t-97 -25t-96.5 25t-67.5 67t-25 93zM644 166q0 -27 18 -46.5t46 -19.5q29 0 46.5 19.5t17.5 46.5t-17.5 46.5t-46.5 19.5q-28 0 -46 -19.5t-18 -46.5z" />
    <glyph glyph-name="ampersand" unicode="&#x26;" horiz-adv-x="752" 
d="M562 0l-52 57q-49 -31 -105 -50.5t-121 -19.5q-67 0 -122.5 24t-88.5 68.5t-33 107.5q0 57 26 95t65 63t79 42q-32 34 -58 71.5t-26 85.5q0 44 26 83.5t74.5 64.5t115.5 25q66 0 111 -24.5t68 -63.5t23 -81t-16.5 -72t-48.5 -56t-79 -57l122 -132q24 24 45.5 52t40.5 58
l101 -78q-21 -31 -46.5 -63t-54.5 -62l128 -138h-174zM273 534q0 -23 15 -45t41 -49q77 46 77 94q0 24 -17.5 43t-48.5 19q-34 0 -50.5 -19t-16.5 -43zM199 201q0 -36 27 -61t78 -25q31 0 61 9.5t59 26.5l-136 150q-36 -18 -62.5 -40t-26.5 -60z" />
    <glyph glyph-name="quotesingle" unicode="'" horiz-adv-x="306" 
d="M105 700h161l-106 -319h-99z" />
    <glyph glyph-name="parenleft" unicode="(" horiz-adv-x="341" 
d="M189 780h138q-52 -112 -80.5 -237t-28.5 -253q0 -127 28.5 -252t80.5 -238h-138q-60 113 -90.5 238t-30.5 252q0 128 30.5 253t90.5 237z" />
    <glyph glyph-name="parenright" unicode=")" horiz-adv-x="341" 
d="M152 -200h-138q53 113 81.5 238t28.5 252q0 128 -28.5 253t-81.5 237h138q60 -112 90.5 -237t30.5 -253q0 -127 -30.5 -252t-90.5 -238z" />
    <glyph glyph-name="asterisk" unicode="*" horiz-adv-x="592" 
d="M214 233l-113 82l120 125l-170 31l43 132l156 -75l-23 172h138l-23 -172l156 75l43 -132l-170 -31l120 -125l-113 -82l-82 153z" />
    <glyph glyph-name="plus" unicode="+" horiz-adv-x="674" 
d="M65 196v146h194v199h157v-199h193v-146h-193v-198h-157v198h-194z" />
    <glyph glyph-name="comma" unicode="," horiz-adv-x="323" 
d="M120 110l152 -32l-126 -250l-114 23z" />
    <glyph glyph-name="hyphen" unicode="-" horiz-adv-x="222" 
d="M5 172v131h213v-131h-213z" />
    <glyph glyph-name="period" unicode="." horiz-adv-x="322" 
d="M67 68q0 38 26.5 65.5t67.5 27.5t68 -27.5t27 -65.5t-27 -65t-68 -27t-67.5 27t-26.5 65z" />
    <glyph glyph-name="slash" unicode="/" horiz-adv-x="608" 
d="M448 700h146l-427 -850h-152z" />
    <glyph glyph-name="zero" unicode="0" horiz-adv-x="662" 
d="M40 350q0 114 36.5 195.5t102 124.5t152.5 43q90 0 155 -43t100.5 -124.5t35.5 -195.5t-35.5 -195t-100.5 -124.5t-155 -43.5q-87 0 -152.5 43.5t-102 124.5t-36.5 195zM203 350q0 -99 35 -158.5t93 -59.5t93 59.5t35 158.5t-35 158.5t-93 59.5t-93 -59.5t-35 -158.5z
" />
    <glyph glyph-name="one" unicode="1" horiz-adv-x="509" 
d="M68 498v147l336 68v-713h-163v540z" />
    <glyph glyph-name="two" unicode="2" horiz-adv-x="656" 
d="M20 0l312 323q42 45 66 80.5t24 76.5q0 34 -24 61t-72 27q-49 0 -77.5 -35.5t-28.5 -91.5h-166q0 75 31.5 137t93.5 99t153 37q87 0 146 -33.5t89 -84.5t30 -104q0 -56 -27.5 -104t-73.5 -87l-162 -146h280v-155h-594z" />
    <glyph glyph-name="three" unicode="3" horiz-adv-x="621" 
d="M317 -16q-84 0 -144.5 33.5t-92.5 88t-32 116.5h167q0 -52 33 -77t76 -25q44 0 72 21.5t28 66.5q0 44 -36 71t-113 27v109q59 0 94 28t35 65q0 31 -19.5 50.5t-59.5 19.5q-39 0 -65 -23.5t-26 -59.5h-156q0 63 30.5 112t86 77.5t130.5 28.5q79 0 134 -26t84 -70t29 -98
t-32.5 -92t-88.5 -59q66 -22 103.5 -65.5t37.5 -111.5q0 -61 -33 -107.5t-94.5 -73t-147.5 -26.5z" />
    <glyph glyph-name="four" unicode="4" horiz-adv-x="698" 
d="M14 124l406 576h126v-432h110v-144h-110v-124h-176v124h-356zM238 246h151v209z" />
    <glyph glyph-name="five" unicode="5" horiz-adv-x="645" 
d="M605 224q0 -62 -24.5 -107t-65.5 -73.5t-91 -42.5t-101 -14q-97 0 -164.5 27t-116.5 64l66 139q42 -36 90 -55.5t87 -19.5q63 0 99 24.5t36 75.5q0 34 -19.5 55.5t-50.5 32t-65 10.5q-40 0 -92 -8.5t-105 -35.5l98 404h405v-147h-281l-40 -124q28 14 58.5 19t63.5 5
q56 0 104.5 -27t78.5 -78t30 -124z" />
    <glyph glyph-name="six" unicode="6" horiz-adv-x="669" 
d="M333 697h215l-209 -233q14 5 29.5 7t34.5 2q53 0 102.5 -27t82 -78t32.5 -122q0 -86 -38.5 -144.5t-103 -88t-143.5 -29.5q-78 0 -143 29.5t-103.5 88t-38.5 144.5q0 57 24 105t58 90zM217 246q0 -53 34 -85.5t84 -32.5t83.5 32.5t33.5 85.5t-33.5 86t-83.5 33t-84 -33
t-34 -86z" />
    <glyph glyph-name="seven" unicode="7" horiz-adv-x="603" 
d="M30 542v158h571l-338 -700h-183l273 542h-323z" />
    <glyph glyph-name="eight" unicode="8" horiz-adv-x="627" 
d="M52 190q0 70 38.5 114t92.5 67q-46 22 -76 62t-30 98q0 59 32.5 100.5t86.5 63t118 21.5q65 0 118.5 -21.5t85.5 -63t32 -100.5q0 -58 -30 -98t-75 -62q54 -23 92 -67t38 -114q0 -64 -36.5 -110t-96 -71t-128.5 -25t-128.5 25t-96.5 71t-37 110zM236 515
q0 -35 22.5 -57.5t55.5 -22.5t55 22.5t22 57.5t-21 57t-56 22q-34 0 -56 -22t-22 -57zM220 216q0 -46 28 -70.5t66 -24.5t65.5 24.5t27.5 70.5q0 38 -27.5 64.5t-65.5 26.5t-66 -26.5t-28 -64.5z" />
    <glyph glyph-name="nine" unicode="9" horiz-adv-x="669" 
d="M337 3h-215l209 233q-14 -5 -29.5 -7t-35.5 -2q-52 0 -102 27t-82 78t-32 122q0 86 38.5 144.5t103.5 88t143 29.5q79 0 143.5 -29.5t103 -88t38.5 -144.5q0 -57 -23.5 -105t-58.5 -90zM452 454q0 53 -33.5 85.5t-83.5 32.5t-84 -32.5t-34 -85.5t34 -86t84 -33t83.5 33
t33.5 86z" />
    <glyph glyph-name="colon" unicode=":" horiz-adv-x="322" 
d="M67 442q0 38 26.5 65t67.5 27t68 -27t27 -65t-27 -65.5t-68 -27.5t-67.5 27.5t-26.5 65.5zM67 68q0 38 26.5 65.5t67.5 27.5t68 -27.5t27 -65.5t-27 -65t-68 -27t-67.5 27t-26.5 65z" />
    <glyph glyph-name="semicolon" unicode=";" horiz-adv-x="393" 
d="M119 436q0 38 26.5 65t67.5 27t68 -27t27 -65t-27 -65.5t-68 -27.5t-67.5 27.5t-26.5 65.5zM142 110l152 -32l-126 -250l-114 23z" />
    <glyph glyph-name="less" unicode="&#x3c;" horiz-adv-x="640" 
d="M281 268l294 -120v-149l-510 214v101l510 214v-149z" />
    <glyph glyph-name="equal" unicode="=" horiz-adv-x="626" 
d="M56 290v131h515v-131h-515zM56 84v131h515v-131h-515z" />
    <glyph glyph-name="greater" unicode="&#x3e;" horiz-adv-x="640" 
d="M359 260l-294 119v149l510 -214v-101l-510 -214v149z" />
    <glyph glyph-name="question" unicode="?" horiz-adv-x="627" 
d="M420 500q0 44 -29.5 67.5t-82.5 23.5q-46 0 -88 -22.5t-70 -64.5l-102 85q53 62 117 96t153 34q66 0 124 -26t94.5 -75t36.5 -118q0 -61 -31 -106t-80 -72.5t-103 -36.5l-5 -84h-122l-20 178h32q60 0 99 19.5t58 48t19 53.5zM199 59q0 33 27 58t68 25t67.5 -25t26.5 -58
t-26.5 -58t-67.5 -25t-68 25t-27 58z" />
    <glyph glyph-name="at" unicode="@" horiz-adv-x="770" 
d="M19 320q0 84 29.5 157t82.5 128t125.5 86t158.5 31q80 0 142.5 -28t105.5 -76t65.5 -107t22.5 -121q0 -89 -28.5 -143t-72.5 -78.5t-91 -24.5q-41 0 -72 24t-39 60q-22 -36 -53.5 -55t-66.5 -19q-60 0 -96 42.5t-36 116.5q0 70 24.5 118t62 73.5t76.5 25.5
q29 0 53.5 -15.5t40.5 -40.5l5 46h116l-26 -212q-2 -14 -2 -27q0 -18 5.5 -29t20.5 -11q12 0 28 12.5t28 44.5t12 92q0 64 -25 116.5t-75 84.5t-125 32q-88 0 -152 -39t-98.5 -107t-34.5 -157q0 -112 62.5 -179t185.5 -67q53 0 97 11t87 33l37 -90q-45 -25 -101 -39.5
t-133 -14.5q-113 0 -190 45t-116.5 123.5t-39.5 177.5zM316 320q0 -68 45 -68q26 0 50 30.5t24 81.5q0 35 -13 51.5t-34 16.5q-29 0 -50.5 -33t-21.5 -79z" />
    <glyph glyph-name="A" unicode="A" horiz-adv-x="735" 
d="M544 0l-66 135h-222l-65 -135h-192l369 744l368 -744h-192zM368 442l-78 -178h155z" />
    <glyph glyph-name="B" unicode="B" horiz-adv-x="664" 
d="M620 197q0 -104 -73.5 -150.5t-198.5 -46.5h-274v700h258q72 0 128 -19.5t88 -59t32 -99.5q0 -51 -27 -88t-74 -58q60 -21 100.5 -64.5t40.5 -114.5zM313 569h-70v-147h70q44 0 68 20t24 55t-24 53.5t-68 18.5zM243 131h86q49 0 82.5 20t33.5 70q0 46 -33.5 64.5
t-82.5 18.5h-86v-173z" />
    <glyph glyph-name="C" unicode="C" horiz-adv-x="700" 
d="M219 350q0 -64 28.5 -110t76.5 -70.5t104 -24.5q74 0 124.5 28t84.5 65v-184q-42 -32 -92 -51t-127 -19q-112 0 -199 46t-136 128.5t-49 191.5t49 191.5t136 128.5t199 46q77 0 127 -19t92 -51v-184q-34 38 -84.5 65.5t-124.5 27.5q-56 0 -104 -24.5t-76.5 -70
t-28.5 -110.5z" />
    <glyph glyph-name="D" unicode="D" horiz-adv-x="733" 
d="M324 0h-250v700h250q115 0 199 -42.5t130 -121t46 -186.5t-46 -186.5t-130 -121t-199 -42.5zM318 549h-69v-398h69q54 0 101 18.5t76 62t29 118.5t-29 118.5t-76 62t-101 18.5z" />
    <glyph glyph-name="E" unicode="E" horiz-adv-x="603" 
d="M74 700h465v-139h-302v-125h282v-137h-282v-160h302v-139h-465v700z" />
    <glyph glyph-name="F" unicode="F" horiz-adv-x="553" 
d="M74 700h425v-146h-262v-137h252v-136h-252v-281h-163v700z" />
    <glyph glyph-name="G" unicode="G" horiz-adv-x="814" 
d="M421 253v130h354q5 -83 -17 -156.5t-68 -129.5t-114.5 -87.5t-158.5 -31.5q-111 0 -197.5 47t-136 130.5t-49.5 194.5t51 193.5t139 127.5t199 45t189 -46.5t127 -119.5l-151 -78q-24 41 -63.5 69t-101.5 28q-58 0 -106.5 -26t-77 -75t-28.5 -118t27.5 -119.5t75.5 -78
t109 -27.5q77 0 122 36.5t62 91.5h-186z" />
    <glyph glyph-name="H" unicode="H" horiz-adv-x="786" 
d="M74 700h169v-255h301v255h169v-700h-169v293h-301v-293h-169v700z" />
    <glyph glyph-name="I" unicode="I" horiz-adv-x="320" 
d="M74 700h172v-700h-172v700z" />
    <glyph glyph-name="J" unicode="J" horiz-adv-x="330" 
d="M-72 -63q15 -13 37 -23t44 -10q23 0 44 17.5t21 62.5v716h183v-754q0 -67 -31.5 -107.5t-84 -59t-115.5 -18.5q-58 0 -109 19t-81 38z" />
    <glyph glyph-name="K" unicode="K" horiz-adv-x="700" 
d="M74 700h175v-276l238 276h199l-284 -328l299 -372h-205l-247 306v-306h-175v700z" />
    <glyph glyph-name="L" unicode="L" horiz-adv-x="528" 
d="M74 700h169v-554h281v-146h-450v700z" />
    <glyph glyph-name="M" unicode="M" horiz-adv-x="891" 
d="M255 356l-43 -356h-178l113 735l299 -426l298 426l114 -735h-179l-42 356l-191 -291z" />
    <glyph glyph-name="N" unicode="N" horiz-adv-x="793" 
d="M557 700h163v-735l-483 428v-393h-163v735l483 -428v393z" />
    <glyph glyph-name="O" unicode="O" horiz-adv-x="821" 
d="M34 350q0 81 28.5 148t80 116t120 75.5t148.5 26.5q81 0 150 -26.5t119.5 -75.5t79 -116t28.5 -148t-27.5 -149t-78.5 -118t-119.5 -77.5t-151.5 -27.5q-82 0 -151 27.5t-120 77.5t-78.5 118t-27.5 149zM213 350q0 -62 24.5 -109.5t69.5 -74.5t104 -27q60 0 104 27
t68.5 74.5t24.5 109.5t-24 109.5t-68 74.5t-105 27q-59 0 -104 -27t-69.5 -74.5t-24.5 -109.5z" />
    <glyph glyph-name="P" unicode="P" horiz-adv-x="623" 
d="M74 700h243q134 0 203 -61t69 -168q0 -106 -69 -167.5t-203 -61.5h-74v-242h-169v700zM317 561h-74v-179h74q51 0 80 23t29 66q0 44 -29 67t-80 23z" />
    <glyph glyph-name="Q" unicode="Q" horiz-adv-x="863" 
d="M34 350q0 81 29 148t81 116t121 75.5t149 26.5q81 0 149.5 -26.5t118.5 -75.5t78 -116t28 -148q0 -65 -17.5 -121.5t-50.5 -102.5l150 -138h-182l-56 53q-45 -30 -100 -46.5t-118 -16.5q-82 0 -151.5 27.5t-121 77.5t-79.5 118t-28 149zM213 350q0 -68 28.5 -118
t76.5 -77.5t108 -27.5q52 0 93 19l-163 154h176l74 -68q21 44 21 99q0 62 -25.5 114.5t-73 84t-114.5 31.5q-59 0 -104.5 -27t-71 -74.5t-25.5 -109.5z" />
    <glyph glyph-name="R" unicode="R" horiz-adv-x="647" 
d="M74 700h255q134 0 203.5 -64t69.5 -165q0 -72 -35.5 -126.5t-104.5 -80.5l182 -264h-199l-150 242h-52v-242h-169v700zM317 556h-74v-182h74q51 0 80 24t29 67q0 44 -29 67.5t-80 23.5z" />
    <glyph glyph-name="S" unicode="S" horiz-adv-x="625" 
d="M151 246q32 -57 75.5 -90.5t96.5 -33.5q38 0 61.5 18.5t23.5 50.5q0 26 -14 43t-44.5 32t-81.5 34q-26 10 -58 26t-61.5 41t-48.5 61.5t-19 87.5q0 63 32.5 107.5t88 68.5t123.5 24q71 0 122 -23t85 -58t52 -71l-129 -72q-23 38 -55 60.5t-73 22.5q-36 0 -54.5 -15.5
t-18.5 -38.5q0 -36 40.5 -58.5t113.5 -48.5q49 -17 89.5 -45.5t65 -70t24.5 -99.5q0 -71 -37 -120.5t-96.5 -75t-125.5 -25.5q-68 0 -126.5 24.5t-102 66t-66.5 92.5z" />
    <glyph glyph-name="T" unicode="T" horiz-adv-x="561" 
d="M4 548v152h554v-152h-192v-548h-170v548h-192z" />
    <glyph glyph-name="U" unicode="U" horiz-adv-x="701" 
d="M69 700h169v-458q0 -53 28 -86t84 -33t84.5 33t28.5 86v458h169v-470q0 -88 -37.5 -145.5t-101.5 -85.5t-143 -28t-142.5 28t-101 85.5t-37.5 145.5v470z" />
    <glyph glyph-name="V" unicode="V" horiz-adv-x="735" 
d="M368 283l170 417h198l-368 -744l-369 744h198z" />
    <glyph glyph-name="W" unicode="W" horiz-adv-x="1065" 
d="M724 301l136 399h201l-303 -741l-226 421l-225 -421l-303 741h201l137 -399l190 434z" />
    <glyph glyph-name="X" unicode="X" horiz-adv-x="686" 
d="M458 700h210l-220 -341l234 -359h-209l-128 232l-132 -232h-209l240 359l-215 341h209l109 -203z" />
    <glyph glyph-name="Y" unicode="Y" horiz-adv-x="660" 
d="M467 700h195l-245 -415v-285h-173v284l-245 416h195l136 -263z" />
    <glyph glyph-name="Z" unicode="Z" horiz-adv-x="620" 
d="M57 548v152h549l-330 -554h295v-146h-562l326 548h-278z" />
    <glyph glyph-name="bracketleft" unicode="[" horiz-adv-x="362" 
d="M242 649v-738h100v-131h-251v1000h251v-131h-100z" />
    <glyph glyph-name="backslash" unicode="\" horiz-adv-x="546" 
d="M15 700h147l369 -700h-147z" />
    <glyph glyph-name="bracketright" unicode="]" horiz-adv-x="362" 
d="M121 -89v738h-101v131h252v-1000h-252v131h101z" />
    <glyph glyph-name="asciicircum" unicode="^" horiz-adv-x="510" 
d="M255 580l-79 -132h-136l170 262h90l170 -262h-136z" />
    <glyph glyph-name="underscore" unicode="_" horiz-adv-x="531" 
d="M0 -154v97h531v-97h-531z" />
    <glyph glyph-name="grave" unicode="`" horiz-adv-x="375" 
d="M53 654l116 52l150 -160l-86 -42z" />
    <glyph glyph-name="a" unicode="a" horiz-adv-x="539" 
d="M109 319l-51 101q40 19 94.5 36t119.5 17q61 0 109 -17.5t76 -50.5t28 -81v-324h-145v63q-21 -36 -62.5 -54.5t-89.5 -18.5q-44 0 -81.5 16.5t-60 49.5t-22.5 80q0 66 46.5 104.5t133.5 38.5q42 0 77 -8.5t59 -20.5v40q0 68 -87 68q-30 0 -60 -7t-52.5 -16.5t-31.5 -15.5
zM177 144q0 -27 18.5 -41.5t46.5 -14.5q37 0 66 22.5t32 67.5q-41 18 -89 18q-40 0 -57 -13.5t-17 -38.5z" />
    <glyph glyph-name="b" unicode="b" horiz-adv-x="616" 
d="M585 230q0 -77 -31.5 -131t-81.5 -81.5t-106 -27.5q-102 0 -157 83v-73h-151v780h151v-393q55 83 157 83q56 0 106 -27.5t81.5 -81t31.5 -131.5zM426 230q0 54 -32.5 86t-77.5 32q-25 0 -50 -14t-41 -40t-16 -64q0 -37 16 -63.5t41 -40.5t50 -14q45 0 77.5 32t32.5 86z
" />
    <glyph glyph-name="c" unicode="c" horiz-adv-x="493" 
d="M186 230q0 -55 36 -87t87 -32q41 0 78 17.5t57 50.5v-147q-24 -19 -60 -30.5t-88 -11.5q-77 0 -137 30t-94.5 84t-34.5 126q0 73 34.5 126.5t94.5 83.5t137 30q52 0 88 -11.5t60 -28.5v-148q-20 33 -59 50t-76 17q-34 0 -62 -15.5t-44.5 -42.5t-16.5 -61z" />
    <glyph glyph-name="d" unicode="d" horiz-adv-x="616" 
d="M32 230q0 78 31 131.5t81 81t106 27.5q102 0 158 -84v394h151v-780h-151v74q-56 -84 -158 -84q-56 0 -106 27.5t-81 81.5t-31 131zM191 230q0 -54 32.5 -86t77.5 -32q26 0 50.5 14t40.5 40.5t16 63.5q0 38 -16 64t-40.5 40t-50.5 14q-45 0 -77.5 -32t-32.5 -86z" />
    <glyph glyph-name="e" unicode="e" horiz-adv-x="573" 
d="M294 -10q-81 0 -139.5 29.5t-90.5 83.5t-32 127q0 112 69 176t190 64q119 0 183.5 -61t64.5 -172v-21t-1 -18h-351q6 -47 33 -73t71 -26q80 0 114 60l136 -33q-73 -136 -247 -136zM288 369q-82 0 -99 -87h188q-4 40 -27.5 63.5t-61.5 23.5z" />
    <glyph glyph-name="f" unicode="f" horiz-adv-x="344" 
d="M18 460h58v170q0 77 43.5 121.5t129.5 44.5q51 0 81.5 -17.5t46.5 -32.5l-61 -111q-18 25 -47 25q-48 0 -48 -68v-132h111v-125h-111v-335h-145v335h-58v125z" />
    <glyph glyph-name="g" unicode="g" horiz-adv-x="610" 
d="M42 -33h147q4 -43 32 -64t72 -21q48 0 81.5 32t33.5 96v72q-55 -80 -158 -80q-56 0 -106 26t-81 78.5t-31 129.5q0 78 31 130t81 78t106 26q103 0 158 -80v70h145v-450q0 -89 -34 -144t-91.5 -80t-127.5 -25q-86 0 -141 26t-83 72.5t-34 107.5zM191 236q0 -54 32.5 -83
t77.5 -29q26 0 50.5 12.5t40.5 37.5t16 62q0 38 -16 62.5t-40.5 37t-50.5 12.5q-45 0 -77.5 -29t-32.5 -83z" />
    <glyph glyph-name="h" unicode="h" horiz-adv-x="568" 
d="M358 280q0 41 -15 62.5t-52 21.5q-36 0 -58 -21.5t-22 -62.5v-280h-152v780h152v-383q19 37 54 58.5t86 21.5q86 0 122 -45t36 -130v-302h-151v280z" />
    <glyph glyph-name="i" unicode="i" horiz-adv-x="276" 
d="M50 632q0 36 25.5 59t62.5 23t62.5 -23t25.5 -59t-25.5 -58.5t-62.5 -22.5t-62.5 22.5t-25.5 58.5zM64 460h147v-460h-147v460z" />
    <glyph glyph-name="j" unicode="j" horiz-adv-x="271" 
d="M45 632q0 36 25.5 59t62.5 23t62.5 -23t25.5 -59t-25.5 -58.5t-62.5 -22.5t-62.5 22.5t-25.5 58.5zM-33 -77q9 -11 20 -18t26 -7q48 0 48 68v494h146v-532q0 -75 -44 -121t-130 -46q-50 0 -80 17t-47 34z" />
    <glyph glyph-name="k" unicode="k" horiz-adv-x="577" 
d="M371 460h180l-197 -190l217 -270h-178l-190 234v-234h-145v780h145v-482z" />
    <glyph glyph-name="l" unicode="l" horiz-adv-x="270" 
d="M59 780h152v-780h-152v780z" />
    <glyph glyph-name="m" unicode="m" horiz-adv-x="820" 
d="M761 296v-296h-152v280q0 41 -13.5 62.5t-44.5 21.5q-30 0 -49 -21t-19 -63v-280h-152v280q0 41 -13.5 62.5t-44.5 21.5q-30 0 -49 -21t-19 -63v-280h-146v460h146v-68q20 38 53 58.5t80 20.5q54 0 86.5 -19t45.5 -57q25 36 62 56t84 20q80 0 112.5 -46t32.5 -129z" />
    <glyph glyph-name="n" unicode="n" 
d="M358 280q0 41 -15 62.5t-52 21.5q-36 0 -58 -21.5t-22 -62.5v-280h-152v460h152v-69q20 38 54.5 59t85.5 21q86 0 125.5 -46t39.5 -129v-296h-158v280z" />
    <glyph glyph-name="o" unicode="o" horiz-adv-x="589" 
d="M32 230q0 73 34.5 127t94 84t134.5 30q76 0 135 -30t93.5 -84t34.5 -127q0 -72 -34.5 -126t-93.5 -84t-135 -30q-75 0 -134.5 30t-94 84t-34.5 126zM188 230q0 -53 31.5 -84t75.5 -31t75.5 31t31.5 84t-31.5 84.5t-75.5 31.5t-75.5 -31.5t-31.5 -84.5z" />
    <glyph glyph-name="p" unicode="p" horiz-adv-x="616" 
d="M209 -220h-151v680h151v-74q25 43 64.5 66.5t92.5 23.5q56 0 106 -27.5t81.5 -82.5t31.5 -136t-31.5 -135.5t-81.5 -82.5t-106 -28q-53 0 -92.5 23.5t-64.5 66.5v-294zM426 230q0 54 -32.5 83t-77.5 29q-25 0 -50 -12.5t-41 -37t-16 -62.5q0 -37 16 -62t41 -37.5
t50 -12.5q45 0 77.5 29t32.5 83z" />
    <glyph glyph-name="q" unicode="q" horiz-adv-x="616" 
d="M32 230q0 81 31 136t81 82.5t106 27.5q53 0 93 -23.5t65 -66.5v74h151v-680h-151v294q-25 -43 -65 -66.5t-93 -23.5q-56 0 -106 28t-81 82.5t-31 135.5zM191 230q0 -54 32.5 -83t77.5 -29q26 0 50.5 12.5t40.5 37.5t16 62q0 38 -16 62.5t-40.5 37t-50.5 12.5
q-45 0 -77.5 -29t-32.5 -83z" />
    <glyph glyph-name="r" unicode="r" horiz-adv-x="411" 
d="M341 303q-12 12 -25.5 19t-33.5 7q-33 0 -53.5 -26t-20.5 -76v-227h-149v460h149v-58q22 32 52.5 50.5t63.5 18.5q25 0 48 -10.5t35 -27.5z" />
    <glyph glyph-name="s" unicode="s" horiz-adv-x="456" 
d="M84 167q53 -44 90.5 -59.5t61.5 -15.5q45 0 45 36q0 22 -21 35.5t-77 31.5q-32 11 -62 28t-49 45t-19 72q0 63 49 96.5t123 33.5q59 0 108 -19.5t89 -48.5l-54 -99q-28 27 -65.5 45t-68.5 18q-20 0 -30.5 -8t-10.5 -21q0 -23 27.5 -34t78.5 -31q36 -13 66 -30t48.5 -43
t18.5 -69q0 -73 -45 -111t-128 -38q-75 0 -133 24.5t-105 61.5z" />
    <glyph glyph-name="t" unicode="t" horiz-adv-x="318" 
d="M5 460h81v160h146v-160h81v-125h-81v-335h-146v335h-81v125z" />
    <glyph glyph-name="u" unicode="u" 
d="M218 180q0 -40 14.5 -62t51.5 -22q36 0 58 22t22 62v280h152v-460h-152v69q-20 -37 -54.5 -58.5t-85.5 -21.5q-85 0 -125 46.5t-40 128.5v296h159v-280z" />
    <glyph glyph-name="v" unicode="v" horiz-adv-x="527" 
d="M-3 460h162l105 -255l105 255h162l-267 -514z" />
    <glyph glyph-name="w" unicode="w" horiz-adv-x="761" 
d="M-8 460h159l96 -235l132 270l135 -271l96 236h159l-238 -489l-152 273l-149 -273z" />
    <glyph glyph-name="x" unicode="x" horiz-adv-x="532" 
d="M354 460h168l-176 -224l186 -236h-168l-95 133l-95 -133h-174l189 236l-179 224h174l85 -121z" />
    <glyph glyph-name="y" unicode="y" horiz-adv-x="521" 
d="M531 460l-300 -680h-153l112 257l-199 423h167l109 -271l108 271h156z" />
    <glyph glyph-name="z" unicode="z" horiz-adv-x="522" 
d="M256 322h-198v138h450l-230 -322h197v-138h-460z" />
    <glyph glyph-name="braceleft" unicode="{" horiz-adv-x="398" 
d="M266 610v-120q0 -37 -4 -77.5t-22 -74t-58 -48.5q40 -15 58 -48.5t22 -74t4 -77.5v-120q0 -19 13 -34.5t35 -15.5h34v-120h-91q-41 0 -77.5 14.5t-59 45.5t-22.5 80v185q0 57 -14 80t-46 30v110q32 8 46 30.5t14 79.5v185q0 50 22.5 80.5t59 45t77.5 14.5h91v-120h-34
q-22 0 -35 -15t-13 -35z" />
    <glyph glyph-name="bar" unicode="|" horiz-adv-x="352" 
d="M100 785h153v-1000h-153v1000z" />
    <glyph glyph-name="braceright" unicode="}" horiz-adv-x="398" 
d="M136 -30v120q0 37 4 77.5t22 74t58 48.5q-40 15 -58 48.5t-22 74t-4 77.5v120q0 20 -12.5 35t-35.5 15h-35v120h92q41 0 77.5 -14.5t59 -45t22.5 -80.5v-185q0 -57 14.5 -79.5t45.5 -30.5v-110q-31 -7 -45.5 -30t-14.5 -80v-185q0 -49 -22.5 -80t-59 -45.5t-77.5 -14.5
h-92v120h35q23 0 35.5 15.5t12.5 34.5z" />
    <glyph glyph-name="asciitilde" unicode="~" 
d="M156 164l-119 4q-3 11 -3 24q0 26 6.5 50t24.5 46q20 26 49.5 42t79.5 16q34 0 61.5 -12.5t63.5 -36.5q23 -16 40.5 -25t30.5 -9q17 0 25 11.5t8 27.5q0 17 -7 34l121 -6q2 -6 3 -13t1 -15q0 -24 -6 -49t-23 -47q-20 -25 -45.5 -39t-66.5 -14q-30 0 -58.5 13t-65.5 37
q-23 16 -43.5 25t-39.5 9q-24 0 -33.5 -14t-9.5 -31q0 -10 2 -16z" />
    <glyph glyph-name="uni00A0" unicode="&#xa0;" horiz-adv-x="300" 
 />
    <glyph glyph-name="exclamdown" unicode="&#xa1;" horiz-adv-x="343" 
d="M266 409q0 -38 -26.5 -62.5t-67.5 -24.5t-67.5 24.5t-26.5 62.5t26.5 62t67.5 24t67.5 -24t26.5 -62zM266 -229h-188l33 468h122z" />
    <glyph glyph-name="cent" unicode="&#xa2;" horiz-adv-x="580" 
d="M205 230q0 -58 37 -88.5t86 -30.5q47 0 81 20t54 49v-150q-40 -32 -113 -39l6 -103h-129l7 112q-83 21 -133.5 81.5t-50.5 148.5t50.5 148.5t133.5 81.5l-7 118h129l-7 -110q36 -3 65 -13t49 -25v-150q-20 29 -54 49t-81 20q-32 0 -60.5 -15t-45.5 -41.5t-17 -62.5z" />
    <glyph glyph-name="sterling" unicode="&#xa3;" horiz-adv-x="611" 
d="M67 370h90q-16 20 -32.5 41t-28 47t-11.5 63q0 60 33 102t88 64.5t121 22.5q57 0 101.5 -17.5t75.5 -46.5t48 -63t19 -66l-137 -51q-2 27 -11.5 52.5t-30.5 41.5t-58 16q-36 0 -63 -19t-27 -62q0 -39 21 -66.5t41 -58.5h140v-100h-110q0 -36 -17 -69.5t-42 -61.5h262
v-139h-487q70 72 102 136t35 134h-122v100z" />
    <glyph glyph-name="currency" unicode="&#xa4;" horiz-adv-x="576" 
d="M86 34l-63 63l68 66q-19 29 -29.5 63.5t-10.5 73.5t10.5 73.5t29.5 63.5l-68 66l63 63l66 -67q29 20 63.5 30.5t73.5 10.5t73.5 -10.5t63.5 -30.5l66 67l61 -63l-66 -66q19 -28 29.5 -63t10.5 -74t-10.5 -74t-29.5 -63l66 -66l-61 -63l-66 67q-29 -20 -63.5 -30.5
t-73.5 -10.5t-73.5 10.5t-63.5 30.5zM188 300q0 -46 28.5 -74t72.5 -28t72.5 28t28.5 74q0 47 -28.5 74.5t-72.5 27.5t-72.5 -27.5t-28.5 -74.5z" />
    <glyph glyph-name="yen" unicode="&#xa5;" horiz-adv-x="669" 
d="M45 115v100h203v50h-203v100h155l-198 335h196l136 -263l137 263h194l-197 -335h153v-100h-199v-50h199v-100h-199v-115h-174v115h-203z" />
    <glyph glyph-name="brokenbar" unicode="&#xa6;" horiz-adv-x="352" 
d="M100 695h153v-265h-153v265zM253 270v-265h-153v265h153z" />
    <glyph glyph-name="section" unicode="&#xa7;" horiz-adv-x="577" 
d="M128 174q38 -37 80 -54.5t70 -17.5q29 0 42 9.5t13 25.5q0 23 -28.5 34.5t-69.5 22.5q-38 11 -72.5 29t-56 45.5t-21.5 65.5q0 43 26 73.5t67 48.5q-32 18 -55.5 46.5t-23.5 75.5q0 49 28 81t70.5 48.5t87.5 16.5q40 0 77.5 -10.5t66.5 -27.5t43 -38l-71 -99
q-21 23 -52 36t-54 13q-52 0 -52 -29q0 -19 30.5 -29t70.5 -21q57 -16 96.5 -51t39.5 -90q0 -43 -22 -73t-57 -48q35 -20 59.5 -50.5t24.5 -76.5q0 -52 -29 -86t-74.5 -50t-95.5 -16q-82 0 -139 28t-91 70zM227 369q0 -23 13.5 -37t34 -23t42.5 -17q12 10 19 23t7 29
q0 31 -26 48.5t-58 29.5q-14 -9 -23 -22t-9 -31z" />
    <glyph glyph-name="dieresis" unicode="&#xa8;" horiz-adv-x="511" 
d="M289 632q0 36 26 59t63 23t62.5 -23t25.5 -59t-25.5 -59t-62.5 -23t-63 23t-26 59zM46 632q0 36 25.5 59t62.5 23t62.5 -23t25.5 -59t-25.5 -59t-62.5 -23t-62.5 23t-25.5 59z" />
    <glyph glyph-name="copyright" unicode="&#xa9;" horiz-adv-x="800" 
d="M40 350q0 78 27.5 144t76 114.5t114.5 75t142 26.5q77 0 142.5 -26.5t114 -75t76 -114.5t27.5 -144t-27.5 -144t-76 -114.5t-114 -75t-142.5 -26.5q-76 0 -142 26.5t-114.5 75t-76 114.5t-27.5 144zM95 350q0 -89 40 -159t109.5 -110.5t155.5 -40.5q87 0 156 40.5
t109 110.5t40 159t-40 159t-109 110.5t-156 40.5q-86 0 -155.5 -40.5t-109.5 -110.5t-40 -159zM289 350q0 -58 37 -90.5t89 -32.5q44 0 74.5 17t50.5 39v-111q-25 -19 -55 -30.5t-76 -11.5q-67 0 -119.5 27.5t-82 77.5t-29.5 115q0 66 29.5 115.5t82 77t119.5 27.5
q46 0 76 -11t55 -31v-111q-20 23 -50.5 39.5t-74.5 16.5q-52 0 -89 -32.5t-37 -90.5z" />
    <glyph glyph-name="ordfeminine" unicode="&#xaa;" horiz-adv-x="270" 
d="M64 625l-26 54q20 9 47.5 17.5t58.5 8.5q47 0 76.5 -19t29.5 -55v-171h-72v33q-10 -18 -30.5 -28t-46.5 -10q-36 0 -59.5 19.5t-23.5 53.5q0 35 28.5 55t70.5 20q18 0 34 -4t27 -10v22q0 15 -10.5 24.5t-29.5 9.5q-25 0 -45.5 -7.5t-28.5 -12.5zM94 530q0 -25 33 -25
q20 0 35.5 10t15.5 38v0q-18 9 -44 9q-18 0 -29 -9t-11 -23z" />
    <glyph glyph-name="guillemotleft" unicode="&#xab;" horiz-adv-x="541" 
d="M352 259l150 -194l-93 -64l-178 254l178 254l93 -64zM149 259l150 -194l-94 -64l-177 254l177 254l94 -64z" />
    <glyph glyph-name="logicalnot" unicode="&#xac;" horiz-adv-x="650" 
d="M65 272v131h521v-228h-107v97h-414z" />
    <glyph glyph-name="uni00AD" unicode="&#xad;" horiz-adv-x="210" 
d="M5 200v75h200v-75h-200z" />
    <glyph glyph-name="registered" unicode="&#xae;" horiz-adv-x="800" 
d="M40 350q0 78 27.5 144t76 114.5t114.5 75t142 26.5q77 0 142.5 -26.5t114 -75t76 -114.5t27.5 -144t-27.5 -144t-76 -114.5t-114 -75t-142.5 -26.5q-76 0 -142 26.5t-114.5 75t-76 114.5t-27.5 144zM95 350q0 -89 40 -159t109.5 -110.5t155.5 -40.5q87 0 156 40.5
t109 110.5t40 159t-40 159t-109 110.5t-156 40.5q-86 0 -155.5 -40.5t-109.5 -110.5t-40 -159zM253 570h154q80 0 121.5 -37.5t41.5 -93.5q0 -45 -22.5 -78t-67.5 -48l109 -163h-119l-79 152h-36v-152h-102v420zM399 484h-44v-104h44q31 0 48.5 13.5t17.5 39.5t-17.5 38.5
t-48.5 12.5z" />
    <glyph glyph-name="macron" unicode="&#xaf;" horiz-adv-x="531" 
d="M80 572v131h372v-131h-372z" />
    <glyph glyph-name="degree" unicode="&#xb0;" horiz-adv-x="296" 
d="M17 597q0 54 37 88.5t94 34.5t94.5 -34.5t37.5 -88.5t-37.5 -88.5t-94.5 -34.5t-94 34.5t-37 88.5zM91 597q0 -27 16.5 -42.5t40.5 -15.5t40.5 15.5t16.5 42.5t-16.5 43t-40.5 16t-40.5 -16t-16.5 -43z" />
    <glyph glyph-name="plusminus" unicode="&#xb1;" horiz-adv-x="633" 
d="M65 332v137h175v151h154v-151h175v-137h-175v-151h-154v151h-175zM65 6v130h504v-130h-504z" />
    <glyph glyph-name="uni00B2" unicode="&#xb2;" horiz-adv-x="408" 
d="M25 282l187 194q26 27 40 48t14 46q0 20 -13.5 37t-42.5 17t-47 -21.5t-18 -55.5h-100q0 45 19.5 82t57 59.5t92.5 22.5q52 0 87 -20.5t52.5 -51.5t17.5 -64q0 -34 -17 -62t-44 -51l-97 -87h168v-93h-356z" />
    <glyph glyph-name="uni00B3" unicode="&#xb3;" horiz-adv-x="365" 
d="M180 270q-51 0 -87.5 20.5t-55.5 53.5t-19 70h100q0 -31 19.5 -46.5t45.5 -15.5t43.5 12t17.5 40q0 26 -21.5 43t-68.5 17v65q35 0 56.5 17t21.5 40q0 19 -12 30t-36 11t-39 -13.5t-15 -36.5h-94q0 56 40.5 93.5t107.5 37.5q71 0 109.5 -33.5t38.5 -82.5q0 -32 -19.5 -55
t-52.5 -36q39 -13 61.5 -39t22.5 -67q0 -55 -43.5 -90t-120.5 -35z" />
    <glyph glyph-name="acute" unicode="&#xb4;" horiz-adv-x="375" 
d="M319 654l-180 -150l-86 42l150 160z" />
    <glyph glyph-name="mu" unicode="&#xb5;" 
d="M218 460v-255q0 -40 14.5 -62t51.5 -22q36 0 58 22t22 62v255h152v-460h-152v53q-15 -24 -39 -40.5t-54 -16.5q-16 0 -32 4t-34 16v-336h-146v780h159z" />
    <glyph glyph-name="paragraph" unicode="&#xb6;" horiz-adv-x="671" 
d="M288 270q-62 0 -114 25t-83 73t-31 117q0 70 31 117.5t83 72.5t114 25h324v-920h-133v827h-59v-827h-132v490z" />
    <glyph glyph-name="periodcentered" unicode="&#xb7;" horiz-adv-x="322" 
d="M67 268q0 38 26.5 65.5t67.5 27.5t68 -27.5t27 -65.5t-27 -65t-68 -27t-67.5 27t-26.5 65z" />
    <glyph glyph-name="cedilla" unicode="&#xb8;" horiz-adv-x="393" 
d="M184 71l110 -3l-87 -122q8 2 17.5 2.5t19.5 0.5q20 0 41.5 -10.5t36 -32t14.5 -54.5q0 -36 -20 -60.5t-50 -37t-62 -12.5q-42 0 -75.5 9t-68.5 31l46 68q19 -13 41 -19t37 -6q26 0 40.5 8.5t14.5 26.5q0 20 -19 26t-42 6q-7 0 -31.5 -2.5t-50.5 -13.5z" />
    <glyph glyph-name="uni00B9" unicode="&#xb9;" horiz-adv-x="482" 
d="M133 572v89l202 41v-428h-97v324z" />
    <glyph glyph-name="ordmasculine" unicode="&#xba;" horiz-adv-x="278" 
d="M19 580q0 54 37 87t94 33t94.5 -33t37.5 -87t-37.5 -87t-94.5 -33t-94 33t-37 87zM96 580q0 -27 16 -42t38 -15t38 15t16 42t-16 42.5t-38 15.5t-38 -15.5t-16 -42.5z" />
    <glyph glyph-name="guillemotright" unicode="&#xbb;" horiz-adv-x="541" 
d="M189 251l-150 194l93 64l178 -254l-178 -254l-93 64zM393 251l-151 194l94 64l178 -254l-178 -254l-94 64z" />
    <glyph glyph-name="onequarter" unicode="&#xbc;" horiz-adv-x="822" 
d="M24 572v89l202 41v-428h-98v324zM630 700h97l-520 -700h-97zM792 75h-66v-75h-105v75h-214l244 345h75v-259h66v-86zM632 273l-91 -125h91v125z" />
    <glyph glyph-name="onehalf" unicode="&#xbd;" horiz-adv-x="894" 
d="M24 572v89l202 41v-428h-98v324zM630 700h97l-520 -700h-97zM506 2l187 194q26 27 40 48t14 46q0 20 -13.5 37t-42.5 17t-47 -21.5t-18 -55.5h-100q0 45 19 82t56.5 59.5t92.5 22.5q52 0 87 -20.5t52.5 -51.5t17.5 -64q0 -34 -16.5 -62t-43.5 -51l-97 -87h168v-93h-356z
" />
    <glyph glyph-name="threequarters" unicode="&#xbe;" horiz-adv-x="879" 
d="M188 270q-51 0 -87 20.5t-55.5 53.5t-19.5 70h100q0 -31 20 -46.5t46 -15.5t43 12t17 40q0 26 -21.5 43t-68.5 17v65q35 0 56.5 17t21.5 40q0 19 -12 30t-36 11t-39 -13.5t-15 -36.5h-94q0 56 41 93.5t108 37.5q71 0 109 -33.5t38 -82.5q0 -32 -19.5 -55t-52.5 -36
q39 -13 61.5 -39t22.5 -67q0 -55 -43.5 -90t-120.5 -35zM694 700h97l-520 -700h-97zM850 75h-66v-75h-105v75h-215l245 345h75v-259h66v-86zM690 273l-92 -125h92v125z" />
    <glyph glyph-name="questiondown" unicode="&#xbf;" horiz-adv-x="627" 
d="M428 641q0 -33 -27 -58t-68 -25t-67.5 25t-26.5 58t26.5 58t67.5 25t68 -25t27 -58zM207 200q0 -43 29.5 -67t82.5 -24q46 0 88 22.5t70 64.5l103 -85q-53 -61 -117.5 -95.5t-153.5 -34.5q-66 0 -124 26t-94.5 75t-36.5 118q0 61 31 106t80.5 72.5t102.5 36.5l5 84h122
l20 -178h-32q-60 0 -99 -19.5t-58 -47.5t-19 -54z" />
    <glyph glyph-name="Agrave" unicode="&#xc0;" horiz-adv-x="735" 
d="M206 954l116 53l150 -160l-86 -43zM544 0l-66 135h-222l-65 -135h-192l369 744l368 -744h-192zM368 442l-78 -178h155z" />
    <glyph glyph-name="Aacute" unicode="&#xc1;" horiz-adv-x="735" 
d="M526 954l-180 -150l-86 43l150 160zM544 0l-66 135h-222l-65 -135h-192l369 744l368 -744h-192zM368 442l-78 -178h155z" />
    <glyph glyph-name="Acircumflex" unicode="&#xc2;" horiz-adv-x="735" 
d="M368 875l-92 -86l-106 72l198 140l197 -140l-106 -72zM544 0l-66 135h-222l-65 -135h-192l369 744l368 -744h-192zM368 442l-78 -178h155z" />
    <glyph glyph-name="Atilde" unicode="&#xc3;" horiz-adv-x="735" 
d="M171 863q8 37 40 65.5t80 28.5q25 0 41.5 -8t30 -18t28.5 -18t36 -8q19 0 35 14.5t31 38.5l71 -74q-8 -18 -28 -38t-47.5 -34t-58.5 -14q-27 0 -49.5 13.5t-44 27t-46.5 13.5q-19 0 -29 -9.5t-14 -21.5t-4 -20zM544 0l-66 135h-222l-65 -135h-192l369 744l368 -744h-192z
M368 442l-78 -178h155z" />
    <glyph glyph-name="Adieresis" unicode="&#xc4;" horiz-adv-x="735" 
d="M132 836q0 36 26 59t63 23t62.5 -23t25.5 -59t-25.5 -59t-62.5 -23t-63 23t-26 59zM420 830q0 36 25.5 59t62.5 23t62.5 -23t25.5 -59t-25.5 -59t-62.5 -23t-62.5 23t-25.5 59zM544 0l-66 135h-222l-65 -135h-192l369 744l368 -744h-192zM368 442l-78 -178h155z" />
    <glyph glyph-name="Aring" unicode="&#xc5;" horiz-adv-x="735" 
d="M242 800q0 52 36.5 84t88.5 32q53 0 89.5 -32t36.5 -84q0 -44 -27.5 -74t-69.5 -38l340 -688h-192l-66 135h-222l-65 -135h-192l341 687q-43 8 -70.5 38t-27.5 75zM321 800q0 -22 13.5 -34.5t32.5 -12.5t33 12.5t14 34.5q0 23 -14 35.5t-33 12.5t-32.5 -12.5t-13.5 -35.5
zM368 442l-78 -178h155z" />
    <glyph glyph-name="AE" unicode="&#xc6;" horiz-adv-x="1085" 
d="M1015 139v-139h-466v151h-236l-85 -151h-214l424 700h577v-139h-284v-125h264v-137h-264v-160h284zM401 306h148v262z" />
    <glyph glyph-name="Ccedilla" unicode="&#xc7;" horiz-adv-x="700" 
d="M219 350q0 -64 28.5 -110t76.5 -70.5t104 -24.5q74 0 124.5 28t84.5 65v-184q-41 -32 -90 -50.5t-122 -19.5l-43 -61q8 2 17 2.5t19 0.5q20 0 41.5 -10.5t36 -32t14.5 -54.5q0 -36 -19.5 -60t-49.5 -36.5t-62 -12.5q-42 0 -76 8.5t-69 30.5l46 69q19 -13 41.5 -19.5
t37.5 -6.5q54 0 54 35q0 20 -18.5 26.5t-41.5 6.5q-7 0 -32 -3t-51 -14l63 139q-90 16 -157 65t-104.5 123.5t-37.5 169.5q0 109 49 191.5t136 128.5t199 46q77 0 127 -19t92 -51v-184q-34 38 -84.5 65.5t-124.5 27.5q-56 0 -104 -24.5t-76.5 -70t-28.5 -110.5z" />
    <glyph glyph-name="Egrave" unicode="&#xc8;" horiz-adv-x="603" 
d="M145 932l116 53l150 -160l-86 -43zM74 700h465v-139h-302v-125h282v-137h-282v-160h302v-139h-465v700z" />
    <glyph glyph-name="Eacute" unicode="&#xc9;" horiz-adv-x="603" 
d="M465 932l-180 -150l-86 43l150 160zM74 700h465v-139h-302v-125h282v-137h-282v-160h302v-139h-465v700z" />
    <glyph glyph-name="Ecircumflex" unicode="&#xca;" horiz-adv-x="603" 
d="M314 862l-92 -86l-106 72l198 140l197 -140l-106 -72zM74 700h465v-139h-302v-125h282v-137h-282v-160h302v-139h-465v700z" />
    <glyph glyph-name="Edieresis" unicode="&#xcb;" horiz-adv-x="603" 
d="M344 866q0 36 25.5 59t62.5 23t63 -23t26 -59t-26 -59t-63 -23t-62.5 23t-25.5 59zM101 866q0 36 25.5 59t62.5 23t62.5 -23t25.5 -59t-25.5 -59t-62.5 -23t-62.5 23t-25.5 59zM74 700h465v-139h-302v-125h282v-137h-282v-160h302v-139h-465v700z" />
    <glyph glyph-name="Igrave" unicode="&#xcc;" horiz-adv-x="320" 
d="M-8 932l116 53l150 -160l-86 -43zM74 700h172v-700h-172v700z" />
    <glyph glyph-name="Iacute" unicode="&#xcd;" horiz-adv-x="320" 
d="M312 932l-180 -150l-85 43l150 160zM74 700h172v-700h-172v700z" />
    <glyph glyph-name="Icircumflex" unicode="&#xce;" horiz-adv-x="320" 
d="M160 862l-91 -86l-107 72l198 140l197 -140l-106 -72zM74 700h172v-700h-172v700z" />
    <glyph glyph-name="Idieresis" unicode="&#xcf;" horiz-adv-x="320" 
d="M194 858q0 36 25.5 59t62.5 23t62.5 -23t25.5 -59t-25.5 -59t-62.5 -23t-62.5 23t-25.5 59zM-50 858q0 36 25.5 59t62.5 23t63 -23t26 -59t-26 -59t-63 -23t-62.5 23t-25.5 59zM74 700h172v-700h-172v700z" />
    <glyph glyph-name="Eth" unicode="&#xd0;" horiz-adv-x="733" 
d="M6 302v100h68v298h250q115 0 199 -42.5t130 -121t46 -186.5t-46 -186.5t-130 -121t-199 -42.5h-250v302h-68zM356 302h-107v-151h69q54 0 101 18.5t76 62t29 118.5t-29 118.5t-76 62t-101 18.5h-69v-147h107v-100z" />
    <glyph glyph-name="Ntilde" unicode="&#xd1;" horiz-adv-x="793" 
d="M171 833q8 37 40 66t80 29q25 0 41.5 -8t30 -18t28.5 -18t36 -8q19 0 35 14.5t31 38.5l71 -75q-8 -18 -28 -38t-47.5 -33.5t-58.5 -13.5q-27 0 -49.5 13.5t-44 26.5t-46.5 13q-19 0 -29 -9.5t-14 -21.5t-4 -20zM557 700h163v-735l-483 428v-393h-163v735l483 -428v393z
" />
    <glyph glyph-name="Ograve" unicode="&#xd2;" horiz-adv-x="821" 
d="M262 932l116 53l150 -160l-86 -43zM34 350q0 81 28.5 148t80 116t120 75.5t148.5 26.5q81 0 150 -26.5t119.5 -75.5t79 -116t28.5 -148t-27.5 -149t-78.5 -118t-119.5 -77.5t-151.5 -27.5q-82 0 -151 27.5t-120 77.5t-78.5 118t-27.5 149zM213 350q0 -62 24.5 -109.5
t69.5 -74.5t104 -27q60 0 104 27t68.5 74.5t24.5 109.5t-24 109.5t-68 74.5t-105 27q-59 0 -104 -27t-69.5 -74.5t-24.5 -109.5z" />
    <glyph glyph-name="Oacute" unicode="&#xd3;" horiz-adv-x="821" 
d="M574 932l-180 -150l-85 43l150 160zM34 350q0 81 28.5 148t80 116t120 75.5t148.5 26.5q81 0 150 -26.5t119.5 -75.5t79 -116t28.5 -148t-27.5 -149t-78.5 -118t-119.5 -77.5t-151.5 -27.5q-82 0 -151 27.5t-120 77.5t-78.5 118t-27.5 149zM213 350q0 -62 24.5 -109.5
t69.5 -74.5t104 -27q60 0 104 27t68.5 74.5t24.5 109.5t-24 109.5t-68 74.5t-105 27q-59 0 -104 -27t-69.5 -74.5t-24.5 -109.5z" />
    <glyph glyph-name="Ocircumflex" unicode="&#xd4;" horiz-adv-x="821" 
d="M414 862l-92 -86l-106 72l198 140l197 -140l-106 -72zM34 350q0 81 28.5 148t80 116t120 75.5t148.5 26.5q81 0 150 -26.5t119.5 -75.5t79 -116t28.5 -148t-27.5 -149t-78.5 -118t-119.5 -77.5t-151.5 -27.5q-82 0 -151 27.5t-120 77.5t-78.5 118t-27.5 149zM213 350
q0 -62 24.5 -109.5t69.5 -74.5t104 -27q60 0 104 27t68.5 74.5t24.5 109.5t-24 109.5t-68 74.5t-105 27q-59 0 -104 -27t-69.5 -74.5t-24.5 -109.5z" />
    <glyph glyph-name="Otilde" unicode="&#xd5;" horiz-adv-x="821" 
d="M234 833q8 37 40 66t80 29q25 0 41.5 -8t30 -18t28.5 -18t36 -8q19 0 35 14.5t31 38.5l71 -75q-8 -18 -28 -38t-47.5 -33.5t-58.5 -13.5q-27 0 -49.5 13.5t-44 26.5t-46.5 13q-19 0 -29 -9.5t-14 -21.5t-4 -20zM34 350q0 81 28.5 148t80 116t120 75.5t148.5 26.5
q81 0 150 -26.5t119.5 -75.5t79 -116t28.5 -148t-27.5 -149t-78.5 -118t-119.5 -77.5t-151.5 -27.5q-82 0 -151 27.5t-120 77.5t-78.5 118t-27.5 149zM213 350q0 -62 24.5 -109.5t69.5 -74.5t104 -27q60 0 104 27t68.5 74.5t24.5 109.5t-24 109.5t-68 74.5t-105 27
q-59 0 -104 -27t-69.5 -74.5t-24.5 -109.5z" />
    <glyph glyph-name="Odieresis" unicode="&#xd6;" horiz-adv-x="821" 
d="M444 858q0 36 25.5 59t62.5 23t63 -23t26 -59t-26 -59t-63 -23t-62.5 23t-25.5 59zM201 858q0 36 25.5 59t62.5 23t62.5 -23t25.5 -59t-25.5 -59t-62.5 -23t-62.5 23t-25.5 59zM34 350q0 81 28.5 148t80 116t120 75.5t148.5 26.5q81 0 150 -26.5t119.5 -75.5t79 -116
t28.5 -148t-27.5 -149t-78.5 -118t-119.5 -77.5t-151.5 -27.5q-82 0 -151 27.5t-120 77.5t-78.5 118t-27.5 149zM213 350q0 -62 24.5 -109.5t69.5 -74.5t104 -27q60 0 104 27t68.5 74.5t24.5 109.5t-24 109.5t-68 74.5t-105 27q-59 0 -104 -27t-69.5 -74.5t-24.5 -109.5z
" />
    <glyph glyph-name="multiply" unicode="&#xd7;" horiz-adv-x="596" 
d="M140 3l-94 94l163 158l-163 158l94 94l158 -163l158 163l94 -94l-163 -158l163 -158l-94 -94l-158 163z" />
    <glyph glyph-name="Oslash" unicode="&#xd8;" horiz-adv-x="790" 
d="M34 350q0 81 28.5 148t79 116t119.5 75.5t150 26.5q58 0 110 -14t96 -40l80 94l72 -52l-82 -96q47 -48 74 -114t27 -144q0 -81 -28.5 -149t-79 -118t-119.5 -77.5t-150 -27.5q-60 0 -113.5 15.5t-98.5 43.5l-79 -93l-71 52l83 97q-46 49 -72 114.5t-26 142.5zM213 350
q0 -72 32 -124l265 311q-43 24 -99 24q-59 0 -104 -26.5t-69.5 -73.5t-24.5 -111zM608 350q0 74 -33 126l-267 -311q45 -26 103 -26q60 0 104 26.5t68.5 74t24.5 110.5z" />
    <glyph glyph-name="Ugrave" unicode="&#xd9;" horiz-adv-x="701" 
d="M189 926l116 53l150 -160l-86 -43zM69 700h169v-458q0 -53 28 -86t84 -33t84.5 33t28.5 86v458h169v-470q0 -88 -37.5 -145.5t-101.5 -85.5t-143 -28t-142.5 28t-101 85.5t-37.5 145.5v470z" />
    <glyph glyph-name="Uacute" unicode="&#xda;" horiz-adv-x="701" 
d="M512 926l-180 -150l-86 43l150 160zM69 700h169v-458q0 -53 28 -86t84 -33t84.5 33t28.5 86v458h169v-470q0 -88 -37.5 -145.5t-101.5 -85.5t-143 -28t-142.5 28t-101 85.5t-37.5 145.5v470z" />
    <glyph glyph-name="Ucircumflex" unicode="&#xdb;" horiz-adv-x="701" 
d="M350 862l-91 -86l-106 72l197 140l198 -140l-106 -72zM69 700h169v-458q0 -53 28 -86t84 -33t84.5 33t28.5 86v458h169v-470q0 -88 -37.5 -145.5t-101.5 -85.5t-143 -28t-142.5 28t-101 85.5t-37.5 145.5v470z" />
    <glyph glyph-name="Udieresis" unicode="&#xdc;" horiz-adv-x="701" 
d="M403 858q0 36 25.5 59t62.5 23t62.5 -23t25.5 -59t-25.5 -59t-62.5 -23t-62.5 23t-25.5 59zM122 858q0 36 25.5 59t62.5 23t62.5 -23t25.5 -59t-25.5 -59t-62.5 -23t-62.5 23t-25.5 59zM69 700h169v-458q0 -53 28 -86t84 -33t84.5 33t28.5 86v458h169v-470
q0 -88 -37.5 -145.5t-101.5 -85.5t-143 -28t-142.5 28t-101 85.5t-37.5 145.5v470z" />
    <glyph glyph-name="Yacute" unicode="&#xdd;" horiz-adv-x="660" 
d="M491 926l-180 -150l-85 43l150 160zM467 700h195l-245 -415v-285h-173v284l-245 416h195l136 -263z" />
    <glyph glyph-name="Thorn" unicode="&#xde;" horiz-adv-x="612" 
d="M80 700h148v-121h83q134 0 203 -59.5t69 -166.5q0 -106 -69 -165.5t-203 -59.5h-83v-128h-148v700zM311 446h-83v-185h83q58 0 89.5 21t31.5 71t-31.5 71.5t-89.5 21.5z" />
    <glyph glyph-name="germandbls" unicode="&#xdf;" horiz-adv-x="603" 
d="M373 -12q-40 0 -77.5 11.5t-63.5 28.5l31 116q21 -15 47 -24.5t50 -9.5q38 0 62 23.5t24 58.5q0 29 -15.5 48.5t-38 34.5l-45 30t-38 34t-15.5 47q0 27 13.5 49t31.5 43t31.5 46t13.5 58q0 41 -25 60.5t-64 19.5q-46 0 -72 -27t-26 -85l2 -552h-153v554q0 117 66.5 181
t187.5 64q67 0 121.5 -21.5t87 -62.5t32.5 -102q0 -46 -13 -77t-30.5 -52.5t-30.5 -40t-13 -40.5q0 -19 15 -32.5t37.5 -27t45 -31.5t37.5 -46t15 -71q0 -57 -33 -103.5t-86 -74t-112 -27.5z" />
    <glyph glyph-name="agrave" unicode="&#xe0;" horiz-adv-x="544" 
d="M104 683l115 53l150 -160l-85 -43zM117 318l-51 102q40 19 94 36t116 17t110.5 -17.5t76.5 -50.5t28 -81v-324h-146v65q-20 -36 -61 -55.5t-93 -19.5q-76 0 -121.5 36.5t-45.5 101.5q0 71 55.5 111t143.5 40q35 0 67 -8t55 -19v42q0 29 -21.5 46.5t-59.5 17.5
q-49 0 -89.5 -15t-57.5 -25zM177 138q0 -25 17.5 -37t47.5 -12q40 0 70.5 19.5t32.5 71.5q-36 17 -87 17q-39 0 -60 -16t-21 -43z" />
    <glyph glyph-name="aacute" unicode="&#xe1;" horiz-adv-x="544" 
d="M449 683l-180 -150l-86 43l150 160zM117 318l-51 102q40 19 94 36t116 17t110.5 -17.5t76.5 -50.5t28 -81v-324h-146v65q-20 -36 -61 -55.5t-93 -19.5q-76 0 -121.5 36.5t-45.5 101.5q0 71 55.5 111t143.5 40q35 0 67 -8t55 -19v42q0 29 -21.5 46.5t-59.5 17.5
q-49 0 -89.5 -15t-57.5 -25zM177 138q0 -25 17.5 -37t47.5 -12q40 0 70.5 19.5t32.5 71.5q-36 17 -87 17q-39 0 -60 -16t-21 -43z" />
    <glyph glyph-name="acircumflex" unicode="&#xe2;" horiz-adv-x="544" 
d="M276 619l-91 -86l-106 71l197 140l198 -140l-107 -71zM117 318l-51 102q40 19 94 36t116 17t110.5 -17.5t76.5 -50.5t28 -81v-324h-146v65q-20 -36 -61 -55.5t-93 -19.5q-76 0 -121.5 36.5t-45.5 101.5q0 71 55.5 111t143.5 40q35 0 67 -8t55 -19v42q0 29 -21.5 46.5
t-59.5 17.5q-49 0 -89.5 -15t-57.5 -25zM177 138q0 -25 17.5 -37t47.5 -12q40 0 70.5 19.5t32.5 71.5q-36 17 -87 17q-39 0 -60 -16t-21 -43z" />
    <glyph glyph-name="atilde" unicode="&#xe3;" horiz-adv-x="544" 
d="M80 599q8 37 40 65.5t80 28.5q25 0 41.5 -8t30 -18t28.5 -18t36 -8q19 0 34.5 14.5t30.5 38.5l71 -74q-8 -18 -28 -38t-47.5 -33.5t-58.5 -13.5q-27 0 -49.5 13.5t-44 26.5t-46.5 13q-19 0 -29 -9.5t-13.5 -21.5t-3.5 -20zM117 318l-51 102q40 19 94 36t116 17
t110.5 -17.5t76.5 -50.5t28 -81v-324h-146v65q-20 -36 -61 -55.5t-93 -19.5q-76 0 -121.5 36.5t-45.5 101.5q0 71 55.5 111t143.5 40q35 0 67 -8t55 -19v42q0 29 -21.5 46.5t-59.5 17.5q-49 0 -89.5 -15t-57.5 -25zM177 138q0 -25 17.5 -37t47.5 -12q40 0 70.5 19.5
t32.5 71.5q-36 17 -87 17q-39 0 -60 -16t-21 -43z" />
    <glyph glyph-name="adieresis" unicode="&#xe4;" horiz-adv-x="544" 
d="M310 615q0 36 25.5 59t62.5 23t62.5 -23t25.5 -59t-25.5 -59t-62.5 -23t-62.5 23t-25.5 59zM66 615q0 36 25.5 59t62.5 23t62.5 -23t25.5 -59t-25.5 -59t-62.5 -23t-62.5 23t-25.5 59zM117 318l-51 102q40 19 94 36t116 17t110.5 -17.5t76.5 -50.5t28 -81v-324h-146v65
q-20 -36 -61 -55.5t-93 -19.5q-76 0 -121.5 36.5t-45.5 101.5q0 71 55.5 111t143.5 40q35 0 67 -8t55 -19v42q0 29 -21.5 46.5t-59.5 17.5q-49 0 -89.5 -15t-57.5 -25zM177 138q0 -25 17.5 -37t47.5 -12q40 0 70.5 19.5t32.5 71.5q-36 17 -87 17q-39 0 -60 -16t-21 -43z" />
    <glyph glyph-name="aring" unicode="&#xe5;" horiz-adv-x="544" 
d="M151 649q0 52 36.5 83.5t88.5 31.5q53 0 89 -31.5t36 -83.5t-36 -84t-89 -32q-52 0 -88.5 32t-36.5 84zM230 649q0 -22 13.5 -35t32.5 -13t32.5 13t13.5 35q0 23 -13.5 35.5t-32.5 12.5t-32.5 -12.5t-13.5 -35.5zM117 318l-51 102q40 19 94 36t116 17t110.5 -17.5
t76.5 -50.5t28 -81v-324h-146v65q-20 -36 -61 -55.5t-93 -19.5q-76 0 -121.5 36.5t-45.5 101.5q0 71 55.5 111t143.5 40q35 0 67 -8t55 -19v42q0 29 -21.5 46.5t-59.5 17.5q-49 0 -89.5 -15t-57.5 -25zM177 138q0 -25 17.5 -37t47.5 -12q40 0 70.5 19.5t32.5 71.5
q-36 17 -87 17q-39 0 -60 -16t-21 -43z" />
    <glyph glyph-name="ae" unicode="&#xe6;" horiz-adv-x="896" 
d="M217 -10q-91 0 -142 36.5t-51 101.5q0 68 55 109.5t144 41.5q30 0 58.5 -5.5t63.5 -18.5v27q0 76 -81 76q-33 0 -75.5 -11.5t-71.5 -28.5l-51 102q110 53 210 53q136 0 158 -98q66 95 202 95q107 0 166.5 -61.5t59.5 -171.5q0 -27 -2 -39h-350q12 -99 104 -99q38 0 68 16
t46 44l135 -33q-76 -136 -247 -136q-144 0 -197 98q-20 -47 -72.5 -72.5t-129.5 -25.5zM610 369q-81 0 -99 -87h189q-8 87 -90 87zM242 89q89 0 104 77l-1 13q-41 18 -87 18q-81 0 -81 -59q0 -49 65 -49z" />
    <glyph glyph-name="ccedilla" unicode="&#xe7;" horiz-adv-x="493" 
d="M186 230q0 -55 36 -87t87 -32q41 0 78 17.5t57 50.5v-147q-24 -19 -59.5 -30.5t-84.5 -11.5l-39 -55q8 2 17.5 3t19.5 1q20 0 41 -10.5t35.5 -32.5t14.5 -55q0 -36 -19.5 -60t-49.5 -36.5t-62 -12.5q-42 0 -75.5 8.5t-68.5 30.5l46 69q19 -13 41 -19t37 -6q54 0 54 35
q0 20 -18.5 26t-41.5 6q-7 0 -31.5 -2.5t-50.5 -13.5l60 135q-81 21 -130.5 81.5t-49.5 147.5q0 73 34.5 126.5t94.5 83.5t137 30q52 0 88 -11.5t60 -28.5v-148q-20 33 -59 50t-76 17q-34 0 -62 -15.5t-44.5 -42.5t-16.5 -61z" />
    <glyph glyph-name="egrave" unicode="&#xe8;" horiz-adv-x="573" 
d="M126 684l116 53l150 -160l-86 -43zM541 126q-34 -61 -91 -98.5t-156 -37.5q-84 0 -142.5 31t-89 85.5t-30.5 123.5q0 13 1 25t3 24q14 85 78.5 138t176.5 53q121 0 184.5 -62t63.5 -171q0 -6 0.5 -16.5t-1.5 -22.5h-351q7 -53 36 -76t68 -23q41 0 69.5 16t44.5 44z
M288 369q-40 0 -66 -22.5t-33 -64.5h188q-5 41 -26.5 64t-62.5 23z" />
    <glyph glyph-name="eacute" unicode="&#xe9;" horiz-adv-x="573" 
d="M464 684l-180 -150l-86 43l150 160zM541 126q-34 -61 -91 -98.5t-156 -37.5q-84 0 -142.5 31t-89 85.5t-30.5 123.5q0 13 1 25t3 24q14 85 78.5 138t176.5 53q121 0 184.5 -62t63.5 -171q0 -6 0.5 -16.5t-1.5 -22.5h-351q7 -53 36 -76t68 -23q41 0 69.5 16t44.5 44z
M288 369q-40 0 -66 -22.5t-33 -64.5h188q-5 41 -26.5 64t-62.5 23z" />
    <glyph glyph-name="ecircumflex" unicode="&#xea;" horiz-adv-x="573" 
d="M291 616l-91 -85l-106 71l197 140l198 -140l-107 -71zM541 126q-34 -61 -91 -98.5t-156 -37.5q-84 0 -142.5 31t-89 85.5t-30.5 123.5q0 13 1 25t3 24q14 85 78.5 138t176.5 53q121 0 184.5 -62t63.5 -171q0 -6 0.5 -16.5t-1.5 -22.5h-351q7 -53 36 -76t68 -23
q41 0 69.5 16t44.5 44zM288 369q-40 0 -66 -22.5t-33 -64.5h188q-5 41 -26.5 64t-62.5 23z" />
    <glyph glyph-name="edieresis" unicode="&#xeb;" horiz-adv-x="573" 
d="M325 612q0 36 25.5 59t62.5 23t62.5 -23t25.5 -59t-25.5 -58.5t-62.5 -22.5t-62.5 22.5t-25.5 58.5zM81 612q0 36 25.5 59t62.5 23t62.5 -23t25.5 -59t-25.5 -58.5t-62.5 -22.5t-62.5 22.5t-25.5 58.5zM541 126q-34 -61 -91 -98.5t-156 -37.5q-84 0 -142.5 31t-89 85.5
t-30.5 123.5q0 13 1 25t3 24q14 85 78.5 138t176.5 53q121 0 184.5 -62t63.5 -171q0 -6 0.5 -16.5t-1.5 -22.5h-351q7 -53 36 -76t68 -23q41 0 69.5 16t44.5 44zM288 369q-40 0 -66 -22.5t-33 -64.5h188q-5 41 -26.5 64t-62.5 23z" />
    <glyph glyph-name="igrave" unicode="&#xec;" horiz-adv-x="276" 
d="M-42 688l115 53l150 -160l-85 -43zM64 460h147v-460h-147v460z" />
    <glyph glyph-name="iacute" unicode="&#xed;" horiz-adv-x="276" 
d="M310 688l-180 -150l-86 43l150 160zM64 460h147v-460h-147v460z" />
    <glyph glyph-name="icircumflex" unicode="&#xee;" horiz-adv-x="276" 
d="M138 620l-92 -86l-106 72l198 140l197 -140l-106 -72zM64 460h147v-460h-147v460z" />
    <glyph glyph-name="idieresis" unicode="&#xef;" horiz-adv-x="276" 
d="M172 624q0 36 25.5 59t62.5 23t62.5 -23t25.5 -59t-25.5 -59t-62.5 -23t-62.5 23t-25.5 59zM-72 624q0 36 25.5 59t62.5 23t62.5 -23t25.5 -59t-25.5 -59t-62.5 -23t-62.5 23t-25.5 59zM64 460h147v-460h-147v460z" />
    <glyph glyph-name="eth" unicode="&#xf0;" horiz-adv-x="626" 
d="M310 -16q-76 0 -134.5 33.5t-92 93t-33.5 135.5q0 68 26.5 119t74 79.5t110.5 28.5q66 0 124 -35q-41 59 -92 113l-137 -44l-16 55l106 34q-48 46 -107 89l112 76q70 -63 125 -123l112 36l17 -55l-88 -28q160 -192 160 -345q0 -75 -35 -134.5t-95 -93.5t-137 -34z
M313 116q47 0 77 32.5t30 81.5q0 50 -30 83t-77 33q-46 0 -76.5 -33t-30.5 -83q0 -49 30 -81.5t77 -32.5z" />
    <glyph glyph-name="ntilde" unicode="&#xf1;" 
d="M92 596q8 37 39.5 66t79.5 29q25 0 41.5 -8t30 -18t28.5 -18t36 -8q19 0 35 14.5t31 38.5l71 -74q-8 -18 -28 -38t-47.5 -34t-58.5 -14q-27 0 -49.5 13.5t-44 26.5t-46.5 13q-19 0 -29 -9.5t-14 -21.5t-4 -20zM358 280q0 41 -15 62.5t-52 21.5q-36 0 -58 -21.5t-22 -62.5
v-280h-152v460h152v-65q20 34 55 55t85 21q86 0 125.5 -45t39.5 -130v-296h-158v280z" />
    <glyph glyph-name="ograve" unicode="&#xf2;" horiz-adv-x="589" 
d="M135 688l115 53l150 -160l-85 -43zM32 230q0 73 34.5 127t94 84t134.5 30q76 0 135 -30t93.5 -84t34.5 -127q0 -72 -34.5 -126t-93.5 -84t-135 -30q-75 0 -134.5 30t-94 84t-34.5 126zM188 230q0 -53 31.5 -84t75.5 -31t75.5 31t31.5 84t-31.5 84.5t-75.5 31.5
t-75.5 -31.5t-31.5 -84.5z" />
    <glyph glyph-name="oacute" unicode="&#xf3;" horiz-adv-x="589" 
d="M455 688l-180 -150l-86 43l150 160zM32 230q0 73 34.5 127t94 84t134.5 30q76 0 135 -30t93.5 -84t34.5 -127q0 -72 -34.5 -126t-93.5 -84t-135 -30q-75 0 -134.5 30t-94 84t-34.5 126zM188 230q0 -53 31.5 -84t75.5 -31t75.5 31t31.5 84t-31.5 84.5t-75.5 31.5
t-75.5 -31.5t-31.5 -84.5z" />
    <glyph glyph-name="ocircumflex" unicode="&#xf4;" horiz-adv-x="589" 
d="M295 624l-91 -86l-107 71l198 140l197 -140l-106 -71zM32 230q0 73 34.5 127t94 84t134.5 30q76 0 135 -30t93.5 -84t34.5 -127q0 -72 -34.5 -126t-93.5 -84t-135 -30q-75 0 -134.5 30t-94 84t-34.5 126zM188 230q0 -53 31.5 -84t75.5 -31t75.5 31t31.5 84t-31.5 84.5
t-75.5 31.5t-75.5 -31.5t-31.5 -84.5z" />
    <glyph glyph-name="otilde" unicode="&#xf5;" horiz-adv-x="589" 
d="M99 596q8 37 39.5 66t79.5 29q25 0 41.5 -8t30.5 -18t29 -18t36 -8q19 0 34.5 14.5t30.5 38.5l71 -74q-8 -18 -28 -38t-47.5 -34t-58.5 -14q-27 0 -49.5 13.5t-44 26.5t-46.5 13q-19 0 -29 -9.5t-14 -21.5t-4 -20zM32 230q0 73 34.5 127t94 84t134.5 30q76 0 135 -30
t93.5 -84t34.5 -127q0 -72 -34.5 -126t-93.5 -84t-135 -30q-75 0 -134.5 30t-94 84t-34.5 126zM188 230q0 -53 31.5 -84t75.5 -31t75.5 31t31.5 84t-31.5 84.5t-75.5 31.5t-75.5 -31.5t-31.5 -84.5z" />
    <glyph glyph-name="odieresis" unicode="&#xf6;" horiz-adv-x="589" 
d="M329 624q0 36 25.5 59t62.5 23t62.5 -23t25.5 -59t-25.5 -59t-62.5 -23t-62.5 23t-25.5 59zM85 624q0 36 25.5 59t62.5 23t62.5 -23t25.5 -59t-25.5 -59t-62.5 -23t-62.5 23t-25.5 59zM32 230q0 73 34.5 127t94 84t134.5 30q76 0 135 -30t93.5 -84t34.5 -127
q0 -72 -34.5 -126t-93.5 -84t-135 -30q-75 0 -134.5 30t-94 84t-34.5 126zM188 230q0 -53 31.5 -84t75.5 -31t75.5 31t31.5 84t-31.5 84.5t-75.5 31.5t-75.5 -31.5t-31.5 -84.5z" />
    <glyph glyph-name="divide" unicode="&#xf7;" horiz-adv-x="639" 
d="M225 553q0 38 26.5 65.5t67.5 27.5t68 -27.5t27 -65.5t-27 -65t-68 -27t-67.5 27t-26.5 65zM26 259v137h587v-137h-587zM225 98q0 38 26.5 65.5t67.5 27.5t68 -27.5t27 -65.5t-27 -65t-68 -27t-67.5 27t-26.5 65z" />
    <glyph glyph-name="oslash" unicode="&#xf8;" horiz-adv-x="546" 
d="M32 230q0 76 35 129.5t94.5 82t133.5 28.5q65 0 118 -22l43 58l57 -32l-43 -57q41 -31 64.5 -78t23.5 -109q0 -76 -35 -129.5t-94.5 -82t-133.5 -28.5q-68 0 -124 24l-48 -64l-57 32l49 65q-39 31 -61 77t-22 106zM175 230q0 -42 21 -73l140 187q-20 7 -41 7
q-49 0 -84.5 -34t-35.5 -87zM414 230q0 44 -26 77l-140 -189q22 -9 47 -9q49 0 84 31.5t35 89.5z" />
    <glyph glyph-name="ugrave" unicode="&#xf9;" 
d="M142 688l116 53l150 -160l-86 -43zM218 180q0 -40 14.5 -62t51.5 -22q36 0 58 22t22 62v280h152v-460h-152v64q-21 -34 -56 -54.5t-84 -20.5q-85 0 -125 45t-40 130v296h159v-280z" />
    <glyph glyph-name="uacute" unicode="&#xfa;" 
d="M432 688l-180 -150l-85 43l150 160zM218 180q0 -40 14.5 -62t51.5 -22q36 0 58 22t22 62v280h152v-460h-152v64q-21 -34 -56 -54.5t-84 -20.5q-85 0 -125 45t-40 130v296h159v-280z" />
    <glyph glyph-name="ucircumflex" unicode="&#xfb;" 
d="M287 624l-91 -86l-106 71l197 140l197 -140l-106 -71zM218 180q0 -40 14.5 -62t51.5 -22q36 0 58 22t22 62v280h152v-460h-152v64q-21 -34 -56 -54.5t-84 -20.5q-85 0 -125 45t-40 130v296h159v-280z" />
    <glyph glyph-name="udieresis" unicode="&#xfc;" 
d="M322 620q0 36 25.5 59t62.5 23t62.5 -23t25.5 -59t-25.5 -59t-62.5 -23t-62.5 23t-25.5 59zM78 620q0 36 25.5 59t62.5 23t62.5 -23t25.5 -59t-25.5 -59t-62.5 -23t-62.5 23t-25.5 59zM218 180q0 -40 14.5 -62t51.5 -22q36 0 58 22t22 62v280h152v-460h-152v64
q-21 -34 -56 -54.5t-84 -20.5q-85 0 -125 45t-40 130v296h159v-280z" />
    <glyph glyph-name="yacute" unicode="&#xfd;" horiz-adv-x="521" 
d="M422 688l-180 -150l-86 43l150 160zM531 460l-300 -680h-153l112 257l-199 423h167l109 -271l108 271h156z" />
    <glyph glyph-name="thorn" unicode="&#xfe;" horiz-adv-x="616" 
d="M209 -220h-151v1000h151v-393q55 83 157 83q56 0 106 -27.5t81.5 -81t31.5 -131.5q0 -77 -31.5 -131t-81.5 -81.5t-106 -27.5q-102 0 -157 83v-293zM426 230q0 54 -32.5 86t-77.5 32q-25 0 -50 -14t-41 -40t-16 -64q0 -37 16 -63.5t41 -40.5t50 -14q45 0 77.5 32t32.5 86
z" />
    <glyph glyph-name="ydieresis" unicode="&#xff;" horiz-adv-x="521" 
d="M294 612q0 36 25.5 59t62.5 23t63 -23t26 -59t-26 -58.5t-63 -22.5t-62.5 22.5t-25.5 58.5zM51 612q0 36 25.5 59t62.5 23t62.5 -23t25.5 -59t-25.5 -58.5t-62.5 -22.5t-62.5 22.5t-25.5 58.5zM531 460l-300 -680h-153l112 257l-199 423h167l109 -271l108 271h156z" />
    <glyph glyph-name="Amacron" unicode="&#x100;" horiz-adv-x="735" 
d="M182 804v132h371v-132h-371zM544 0l-66 135h-222l-65 -135h-192l369 744l368 -744h-192zM368 442l-78 -178h155z" />
    <glyph glyph-name="amacron" unicode="&#x101;" horiz-adv-x="544" 
d="M90 541v131h372v-131h-372zM117 318l-51 102q40 19 94 36t116 17t110.5 -17.5t76.5 -50.5t28 -81v-324h-146v65q-20 -36 -61 -55.5t-93 -19.5q-76 0 -121.5 36.5t-45.5 101.5q0 71 55.5 111t143.5 40q35 0 67 -8t55 -19v42q0 29 -21.5 46.5t-59.5 17.5q-49 0 -89.5 -15
t-57.5 -25zM177 138q0 -25 17.5 -37t47.5 -12q40 0 70.5 19.5t32.5 71.5q-36 17 -87 17q-39 0 -60 -16t-21 -43z" />
    <glyph glyph-name="Abreve" unicode="&#x102;" horiz-adv-x="735" 
d="M203 951h99q0 -26 18.5 -43t47.5 -17t47 17t18 43h99q0 -61 -42.5 -104t-121.5 -43t-122 43t-43 104zM544 0l-66 135h-222l-65 -135h-192l369 744l368 -744h-192zM368 442l-78 -178h155z" />
    <glyph glyph-name="abreve" unicode="&#x103;" horiz-adv-x="544" 
d="M112 679h99q0 -26 18 -42.5t47 -16.5t47 16.5t18 42.5h99q0 -61 -42.5 -103.5t-121.5 -42.5t-121.5 42.5t-42.5 103.5zM117 318l-51 102q40 19 94 36t116 17t110.5 -17.5t76.5 -50.5t28 -81v-324h-146v65q-20 -36 -61 -55.5t-93 -19.5q-76 0 -121.5 36.5t-45.5 101.5
q0 71 55.5 111t143.5 40q35 0 67 -8t55 -19v42q0 29 -21.5 46.5t-59.5 17.5q-49 0 -89.5 -15t-57.5 -25zM177 138q0 -25 17.5 -37t47.5 -12q40 0 70.5 19.5t32.5 71.5q-36 17 -87 17q-39 0 -60 -16t-21 -43z" />
    <glyph glyph-name="Aogonek" unicode="&#x104;" horiz-adv-x="735" 
d="M691 -111l33 -69q-11 -15 -34.5 -27.5t-65.5 -12.5q-49 0 -83 25.5t-34 74.5q0 38 27 67.5t66 52.5h-56l-66 135h-222l-65 -135h-192l369 744l368 -744h-50q-39 -21 -59.5 -46t-20.5 -48q0 -37 35 -37q28 0 50 20zM368 442l-78 -178h155z" />
    <glyph glyph-name="aogonek" unicode="&#x105;" horiz-adv-x="544" 
d="M117 318l-51 102q40 19 94 36t116 17t110.5 -17.5t76.5 -50.5t28 -81v-324h-32q-39 -21 -59.5 -46t-20.5 -48q0 -37 35 -37q28 0 50 20l33 -69q-11 -15 -34.5 -27.5t-65.5 -12.5q-49 0 -83 25.5t-34 74.5q0 38 27 67.5t66 52.5h-28v65q-20 -36 -61 -55.5t-93 -19.5
q-73 0 -120 36.5t-47 104.5t54 108t145 40q35 0 67 -8t55 -19v42q0 29 -21.5 46.5t-59.5 17.5q-49 0 -89.5 -15t-57.5 -25zM177 138q0 -25 19 -37t46 -12q40 0 70.5 19.5t32.5 71.5q-36 17 -87 17q-39 0 -60 -16t-21 -43z" />
    <glyph glyph-name="Cacute" unicode="&#x106;" horiz-adv-x="700" 
d="M548 926l-180 -150l-86 43l150 160zM219 350q0 -64 28.5 -110t76.5 -70.5t104 -24.5q74 0 124.5 28t84.5 65v-184q-42 -32 -92 -51t-127 -19q-112 0 -199 46t-136 128.5t-49 191.5t49 191.5t136 128.5t199 46q77 0 127 -19t92 -51v-184q-34 38 -84.5 65.5t-124.5 27.5
q-56 0 -104 -24.5t-76.5 -70t-28.5 -110.5z" />
    <glyph glyph-name="cacute" unicode="&#x107;" horiz-adv-x="493" 
d="M426 681l-180 -150l-86 42l150 160zM186 230q0 -55 36 -87t87 -32q41 0 78 17.5t57 50.5v-147q-24 -19 -60 -30.5t-88 -11.5q-77 0 -137 30t-94.5 84t-34.5 126q0 73 34.5 126.5t94.5 83.5t137 30q52 0 88 -11.5t60 -28.5v-148q-20 33 -59 50t-76 17q-34 0 -62 -15.5
t-44.5 -42.5t-16.5 -61z" />
    <glyph glyph-name="Ccircumflex" unicode="&#x108;" horiz-adv-x="700" 
d="M418 862l-91 -86l-106 72l197 140l198 -140l-107 -72zM219 350q0 -64 28.5 -110t76.5 -70.5t104 -24.5q74 0 124.5 28t84.5 65v-184q-42 -32 -92 -51t-127 -19q-112 0 -199 46t-136 128.5t-49 191.5t49 191.5t136 128.5t199 46q77 0 127 -19t92 -51v-184
q-34 38 -84.5 65.5t-124.5 27.5q-56 0 -104 -24.5t-76.5 -70t-28.5 -110.5z" />
    <glyph glyph-name="ccircumflex" unicode="&#x109;" horiz-adv-x="493" 
d="M265 616l-91 -85l-107 71l198 140l197 -140l-106 -71zM186 230q0 -55 36 -87t87 -32q41 0 78 17.5t57 50.5v-147q-24 -19 -60 -30.5t-88 -11.5q-77 0 -137 30t-94.5 84t-34.5 126q0 73 34.5 126.5t94.5 83.5t137 30q52 0 88 -11.5t60 -28.5v-148q-20 33 -59 50t-76 17
q-34 0 -62 -15.5t-44.5 -42.5t-16.5 -61z" />
    <glyph glyph-name="Cdotaccent" unicode="&#x10a;" horiz-adv-x="700" 
d="M305 858q0 36 25.5 59t62.5 23t62.5 -23t25.5 -59t-25.5 -59t-62.5 -23t-62.5 23t-25.5 59zM219 350q0 -64 28.5 -110t76.5 -70.5t104 -24.5q74 0 124.5 28t84.5 65v-184q-42 -32 -92 -51t-127 -19q-112 0 -199 46t-136 128.5t-49 191.5t49 191.5t136 128.5t199 46
q77 0 127 -19t92 -51v-184q-34 38 -84.5 65.5t-124.5 27.5q-56 0 -104 -24.5t-76.5 -70t-28.5 -110.5z" />
    <glyph glyph-name="cdotaccent" unicode="&#x10b;" horiz-adv-x="493" 
d="M183 619q0 36 25.5 59t62.5 23t62.5 -23t25.5 -59t-25.5 -59t-62.5 -23t-62.5 23t-25.5 59zM186 230q0 -55 36 -87t87 -32q41 0 78 17.5t57 50.5v-147q-24 -19 -60 -30.5t-88 -11.5q-77 0 -137 30t-94.5 84t-34.5 126q0 73 34.5 126.5t94.5 83.5t137 30q52 0 88 -11.5
t60 -28.5v-148q-20 33 -59 50t-76 17q-34 0 -62 -15.5t-44.5 -42.5t-16.5 -61z" />
    <glyph glyph-name="Ccaron" unicode="&#x10c;" horiz-adv-x="700" 
d="M418 902l91 86l107 -72l-198 -140l-197 140l106 72zM219 350q0 -64 28.5 -110t76.5 -70.5t104 -24.5q74 0 124.5 28t84.5 65v-184q-42 -32 -92 -51t-127 -19q-112 0 -199 46t-136 128.5t-49 191.5t49 191.5t136 128.5t199 46q77 0 127 -19t92 -51v-184q-34 38 -84.5 65.5
t-124.5 27.5q-56 0 -104 -24.5t-76.5 -70t-28.5 -110.5z" />
    <glyph glyph-name="ccaron" unicode="&#x10d;" horiz-adv-x="493" 
d="M265 656l91 86l106 -71l-197 -140l-198 140l107 71zM186 230q0 -55 36 -87t87 -32q41 0 78 17.5t57 50.5v-147q-24 -19 -60 -30.5t-88 -11.5q-77 0 -137 30t-94.5 84t-34.5 126q0 73 34.5 126.5t94.5 83.5t137 30q52 0 88 -11.5t60 -28.5v-148q-20 33 -59 50t-76 17
q-34 0 -62 -15.5t-44.5 -42.5t-16.5 -61z" />
    <glyph glyph-name="Dcaron" unicode="&#x10e;" horiz-adv-x="733" 
d="M375 902l92 86l106 -72l-198 -140l-197 140l106 72zM324 0h-250v700h250q115 0 199 -42.5t130 -121t46 -186.5t-46 -186.5t-130 -121t-199 -42.5zM318 549h-69v-398h69q54 0 101 18.5t76 62t29 118.5t-29 118.5t-76 62t-101 18.5z" />
    <glyph glyph-name="dcaron" unicode="&#x10f;" horiz-adv-x="616" 
d="M32 230q0 78 31 131.5t81 81t106 27.5q102 0 158 -84v394h151v-780h-151v74q-56 -84 -158 -84q-56 0 -106 27.5t-81 81.5t-31 131zM677 780l152 -32l-125 -250l-115 23zM191 230q0 -54 32.5 -86t77.5 -32q26 0 50.5 14t40.5 40.5t16 63.5q0 38 -16 64t-40.5 40t-50.5 14
q-45 0 -77.5 -32t-32.5 -86z" />
    <glyph glyph-name="Dcroat" unicode="&#x110;" horiz-adv-x="733" 
d="M5 298v100h69v302h250q115 0 199 -42.5t130 -121t46 -186.5t-46 -186.5t-130 -121t-199 -42.5h-250v298h-69zM349 298h-100v-147h69q54 0 101 18.5t76 62t29 118.5t-29 118.5t-76 62t-101 18.5h-69v-151h100v-100z" />
    <glyph glyph-name="dcroat" unicode="&#x111;" horiz-adv-x="616" 
d="M32 230q0 78 31 131.5t81 81t106 27.5q102 0 158 -84v179h-113v100h113v115h151v-115h92v-100h-92v-565h-151v74q-56 -84 -158 -84q-56 0 -106 27.5t-81 81.5t-31 131zM191 230q0 -54 32.5 -86t77.5 -32q26 0 50.5 14t40.5 40.5t16 63.5q0 38 -16 64t-40.5 40t-50.5 14
q-45 0 -77.5 -32t-32.5 -86z" />
    <glyph glyph-name="Emacron" unicode="&#x112;" horiz-adv-x="603" 
d="M121 776v132h371v-132h-371zM74 700h465v-139h-302v-125h282v-137h-282v-160h302v-139h-465v700z" />
    <glyph glyph-name="emacron" unicode="&#x113;" horiz-adv-x="573" 
d="M105 531v131h372v-131h-372zM541 126q-34 -61 -91 -98.5t-156 -37.5q-84 0 -142.5 31t-89 85.5t-30.5 123.5q0 13 1 25t3 24q14 85 78.5 138t176.5 53q121 0 184.5 -62t63.5 -171q0 -6 0.5 -16.5t-1.5 -22.5h-351q7 -53 36 -76t68 -23q41 0 69.5 16t44.5 44zM288 369
q-40 0 -66 -22.5t-33 -64.5h188q-5 41 -26.5 64t-62.5 23z" />
    <glyph glyph-name="Ebreve" unicode="&#x114;" horiz-adv-x="603" 
d="M142 922h99q0 -26 18 -42.5t47 -16.5t47 16.5t18 42.5h99q0 -61 -42.5 -103.5t-121.5 -42.5t-121.5 42.5t-42.5 103.5zM74 700h465v-139h-302v-125h282v-137h-282v-160h302v-139h-465v700z" />
    <glyph glyph-name="ebreve" unicode="&#x115;" horiz-adv-x="573" 
d="M127 677h99q0 -26 18 -42.5t47 -16.5t47 16.5t18 42.5h99q0 -61 -42.5 -103.5t-121.5 -42.5t-121.5 42.5t-42.5 103.5zM541 126q-34 -61 -91 -98.5t-156 -37.5q-84 0 -142.5 31t-89 85.5t-30.5 123.5q0 13 1 25t3 24q14 85 78.5 138t176.5 53q121 0 184.5 -62t63.5 -171
q0 -6 0.5 -16.5t-1.5 -22.5h-351q7 -53 36 -76t68 -23q41 0 69.5 16t44.5 44zM288 369q-40 0 -66 -22.5t-33 -64.5h188q-5 41 -26.5 64t-62.5 23z" />
    <glyph glyph-name="Edotaccent" unicode="&#x116;" horiz-adv-x="603" 
d="M218 858q0 36 25.5 59t62.5 23t62.5 -23t25.5 -59t-25.5 -59t-62.5 -23t-62.5 23t-25.5 59zM74 700h465v-139h-302v-125h282v-137h-282v-160h302v-139h-465v700z" />
    <glyph glyph-name="edotaccent" unicode="&#x117;" horiz-adv-x="573" 
d="M203 612q0 36 25.5 59t62.5 23t62.5 -23t25.5 -59t-25.5 -58.5t-62.5 -22.5t-62.5 22.5t-25.5 58.5zM541 126q-34 -61 -91 -98.5t-156 -37.5q-84 0 -142.5 31t-89 85.5t-30.5 123.5q0 13 1 25t3 24q14 85 78.5 138t176.5 53q121 0 184.5 -62t63.5 -171q0 -6 0.5 -16.5
t-1.5 -22.5h-351q7 -53 36 -76t68 -23q41 0 69.5 16t44.5 44zM288 369q-40 0 -66 -22.5t-33 -64.5h188q-5 41 -26.5 64t-62.5 23z" />
    <glyph glyph-name="Eogonek" unicode="&#x118;" horiz-adv-x="603" 
d="M399 -111l33 -69q-11 -15 -34.5 -27.5t-65.5 -12.5q-49 0 -83 25.5t-34 74.5q0 38 27 67.5t66 52.5h-234v700h465v-139h-302v-125h282v-137h-282v-160h302v-139h-145q-39 -21 -59.5 -46t-20.5 -48q0 -37 35 -37q28 0 50 20z" />
    <glyph glyph-name="eogonek" unicode="&#x119;" horiz-adv-x="573" 
d="M327 -103l33 -69q-11 -15 -34.5 -27.5t-65.5 -12.5q-49 0 -83 25.5t-34 74.5q0 34 22 60.5t54 48.5q-91 20 -139 82.5t-48 150.5q0 13 1 25t3 24q14 85 78.5 138t176.5 53q121 0 184.5 -62t63.5 -171q0 -6 0.5 -16.5t-1.5 -22.5h-351q7 -53 36 -76t68 -23q41 0 69.5 16
t44.5 44l136 -33q-34 -61 -91 -98.5t-156 -37.5h-1q-51 -37 -51 -76q0 -37 35 -37q28 0 50 20zM288 369q-40 0 -66 -22.5t-33 -64.5h188q-5 41 -26.5 64t-62.5 23z" />
    <glyph glyph-name="Ecaron" unicode="&#x11a;" horiz-adv-x="603" 
d="M306 902l92 86l106 -72l-198 -140l-197 140l106 72zM74 700h465v-139h-302v-125h282v-137h-282v-160h302v-139h-465v700z" />
    <glyph glyph-name="ecaron" unicode="&#x11b;" horiz-adv-x="573" 
d="M291 656l91 86l107 -71l-198 -140l-197 140l106 71zM541 126q-34 -61 -91 -98.5t-156 -37.5q-84 0 -142.5 31t-89 85.5t-30.5 123.5q0 13 1 25t3 24q14 85 78.5 138t176.5 53q121 0 184.5 -62t63.5 -171q0 -6 0.5 -16.5t-1.5 -22.5h-351q7 -53 36 -76t68 -23
q41 0 69.5 16t44.5 44zM288 369q-40 0 -66 -22.5t-33 -64.5h188q-5 41 -26.5 64t-62.5 23z" />
    <glyph glyph-name="Gcircumflex" unicode="&#x11c;" horiz-adv-x="814" 
d="M423 862l-91 -86l-106 72l197 140l198 -140l-107 -72zM421 253v130h354q5 -83 -17 -156.5t-68 -129.5t-114.5 -87.5t-158.5 -31.5q-111 0 -197.5 47t-136 130.5t-49.5 194.5t51 193.5t139 127.5t199 45t189 -46.5t127 -119.5l-151 -78q-24 41 -63.5 69t-101.5 28
q-58 0 -106.5 -26t-77 -75t-28.5 -118t27.5 -119.5t75.5 -78t109 -27.5q77 0 122 36.5t62 91.5h-186z" />
    <glyph glyph-name="gcircumflex" unicode="&#x11d;" horiz-adv-x="610" 
d="M319 616l-91 -85l-106 71l197 140l198 -140l-107 -71zM42 -33h147q4 -43 32 -64t72 -21q48 0 81.5 32t33.5 96v72q-55 -80 -158 -80q-56 0 -106 26t-81 78.5t-31 129.5q0 78 31 130t81 78t106 26q103 0 158 -80v70h145v-450q0 -89 -34 -144t-91.5 -80t-127.5 -25
q-86 0 -141 26t-83 72.5t-34 107.5zM191 236q0 -54 32.5 -83t77.5 -29q26 0 50.5 12.5t40.5 37.5t16 62q0 38 -16 62.5t-40.5 37t-50.5 12.5q-45 0 -77.5 -29t-32.5 -83z" />
    <glyph glyph-name="Gbreve" unicode="&#x11e;" horiz-adv-x="814" 
d="M259 922h99q0 -26 18 -42.5t47 -16.5t47 16.5t18 42.5h99q0 -61 -42.5 -103.5t-121.5 -42.5t-121.5 42.5t-42.5 103.5zM421 253v130h354q5 -83 -17 -156.5t-68 -129.5t-114.5 -87.5t-158.5 -31.5q-111 0 -197.5 47t-136 130.5t-49.5 194.5t51 193.5t139 127.5t199 45
t189 -46.5t127 -119.5l-151 -78q-24 41 -63.5 69t-101.5 28q-58 0 -106.5 -26t-77 -75t-28.5 -118t27.5 -119.5t75.5 -78t109 -27.5q77 0 122 36.5t62 91.5h-186z" />
    <glyph glyph-name="gbreve" unicode="&#x11f;" horiz-adv-x="610" 
d="M155 677h99q0 -26 18 -42.5t47 -16.5t47 16.5t18 42.5h100q0 -61 -43 -103.5t-122 -42.5t-121.5 42.5t-42.5 103.5zM42 -33h147q4 -43 32 -64t72 -21q48 0 81.5 32t33.5 96v72q-55 -80 -158 -80q-56 0 -106 26t-81 78.5t-31 129.5q0 78 31 130t81 78t106 26
q103 0 158 -80v70h145v-450q0 -89 -34 -144t-91.5 -80t-127.5 -25q-86 0 -141 26t-83 72.5t-34 107.5zM191 236q0 -54 32.5 -83t77.5 -29q26 0 50.5 12.5t40.5 37.5t16 62q0 38 -16 62.5t-40.5 37t-50.5 12.5q-45 0 -77.5 -29t-32.5 -83z" />
    <glyph glyph-name="Gdotaccent" unicode="&#x120;" horiz-adv-x="814" 
d="M335 858q0 36 25.5 59t62.5 23t62.5 -23t25.5 -59t-25.5 -59t-62.5 -23t-62.5 23t-25.5 59zM421 253v130h354q5 -83 -17 -156.5t-68 -129.5t-114.5 -87.5t-158.5 -31.5q-111 0 -197.5 47t-136 130.5t-49.5 194.5t51 193.5t139 127.5t199 45t189 -46.5t127 -119.5
l-151 -78q-24 41 -63.5 69t-101.5 28q-58 0 -106.5 -26t-77 -75t-28.5 -118t27.5 -119.5t75.5 -78t109 -27.5q77 0 122 36.5t62 91.5h-186z" />
    <glyph glyph-name="gdotaccent" unicode="&#x121;" horiz-adv-x="610" 
d="M220 628q0 36 25.5 58.5t62.5 22.5t62.5 -22.5t25.5 -58.5t-25.5 -59t-62.5 -23t-62.5 23t-25.5 59zM42 -33h147q4 -43 32 -64t72 -21q48 0 81.5 32t33.5 96v72q-55 -80 -158 -80q-56 0 -106 26t-81 78.5t-31 129.5q0 78 31 130t81 78t106 26q103 0 158 -80v70h145v-450
q0 -89 -34 -144t-91.5 -80t-127.5 -25q-86 0 -141 26t-83 72.5t-34 107.5zM191 236q0 -54 32.5 -83t77.5 -29q26 0 50.5 12.5t40.5 37.5t16 62q0 38 -16 62.5t-40.5 37t-50.5 12.5q-45 0 -77.5 -29t-32.5 -83z" />
    <glyph glyph-name="uni0122" unicode="&#x122;" horiz-adv-x="814" 
d="M421 253v130h354q5 -83 -17 -156.5t-68 -129.5t-114.5 -87.5t-158.5 -31.5q-111 0 -197.5 47t-136 130.5t-49.5 194.5t51 193.5t139 127.5t199 45t189 -46.5t127 -119.5l-151 -78q-24 41 -63.5 69t-101.5 28q-58 0 -106.5 -26t-77 -75t-28.5 -118t27.5 -119.5t75.5 -78
t109 -27.5q77 0 122 36.5t62 91.5h-186zM354 -82l152 -33l-126 -250l-114 23z" />
    <glyph glyph-name="uni0123" unicode="&#x123;" horiz-adv-x="570" 
d="M310 542l-145 55l162 228l110 -41zM42 -33h147q4 -43 32 -64t72 -21q48 0 81.5 32t33.5 96v72q-55 -80 -158 -80q-56 0 -106 26t-81 78.5t-31 129.5q0 78 31 130t81 78t106 26q103 0 158 -80v70h145v-450q0 -89 -34 -144t-91.5 -80t-127.5 -25q-86 0 -141 26t-83 72.5
t-34 107.5zM191 236q0 -54 32.5 -83t77.5 -29q26 0 50.5 12.5t40.5 37.5t16 62q0 38 -16 62.5t-40.5 37t-50.5 12.5q-45 0 -77.5 -29t-32.5 -83z" />
    <glyph glyph-name="Hcircumflex" unicode="&#x124;" horiz-adv-x="786" 
d="M394 862l-92 -86l-106 72l198 140l197 -140l-106 -72zM74 700h169v-255h301v255h169v-700h-169v293h-301v-293h-169v700z" />
    <glyph glyph-name="hcircumflex" unicode="&#x125;" horiz-adv-x="568" 
d="M138 926l-91 -86l-107 71l198 140l197 -140l-106 -71zM358 280q0 41 -15 62.5t-52 21.5q-36 0 -58 -21.5t-22 -62.5v-280h-152v780h152v-379q20 34 55 55t85 21q86 0 122 -45t36 -130v-302h-151v280z" />
    <glyph glyph-name="Hbar" unicode="&#x126;" horiz-adv-x="786" 
d="M5 537v106h69v57h169v-57h301v57h169v-57h69v-106h-69v-537h-169v293h-301v-293h-169v537h-69zM243 445h301v92h-301v-92z" />
    <glyph glyph-name="hbar" unicode="&#x127;" horiz-adv-x="568" 
d="M358 280q0 41 -15 62.5t-52 21.5q-36 0 -58 -21.5t-22 -62.5v-280h-152v597h-54v131h54v52h152v-52h126v-131h-126v-200q19 37 54 58.5t86 21.5q86 0 122 -45t36 -130v-302h-151v280z" />
    <glyph glyph-name="Itilde" unicode="&#x128;" horiz-adv-x="320" 
d="M-36 842q8 37 39.5 65.5t79.5 28.5q25 0 41.5 -8t30.5 -18t29 -18t36 -8q19 0 35 15t31 39l71 -75q-8 -18 -28 -38t-48 -33.5t-59 -13.5q-27 0 -49.5 13.5t-43.5 26.5t-46 13q-19 0 -29.5 -9.5t-14.5 -21.5t-4 -20zM74 700h172v-700h-172v700z" />
    <glyph glyph-name="itilde" unicode="&#x129;" horiz-adv-x="276" 
d="M-58 596q8 37 39.5 66t79.5 29q25 0 41.5 -8t30 -18t28.5 -18t36 -8q19 0 35 14.5t31 38.5l71 -74q-8 -18 -28 -38t-47.5 -34t-58.5 -14q-27 0 -49.5 13.5t-44 26.5t-46.5 13q-19 0 -29 -9.5t-14 -21.5t-4 -20zM64 460h147v-460h-147v460z" />
    <glyph glyph-name="Imacron" unicode="&#x12a;" horiz-adv-x="320" 
d="M-26 776v132h372v-132h-372zM74 700h172v-700h-172v700z" />
    <glyph glyph-name="imacron" unicode="&#x12b;" horiz-adv-x="276" 
d="M-48 531v131h372v-131h-372zM64 460h147v-460h-147v460z" />
    <glyph glyph-name="Ibreve" unicode="&#x12c;" horiz-adv-x="320" 
d="M-4 922h99q0 -26 18 -42.5t47 -16.5t47 16.5t18 42.5h99q0 -61 -42.5 -103.5t-121.5 -42.5t-121.5 42.5t-42.5 103.5zM74 700h172v-700h-172v700z" />
    <glyph glyph-name="ibreve" unicode="&#x12d;" horiz-adv-x="276" 
d="M-27 677h99q0 -26 18.5 -42.5t47.5 -16.5t47 16.5t18 42.5h99q0 -61 -42.5 -103.5t-121.5 -42.5t-122 42.5t-43 103.5zM64 460h147v-460h-147v460z" />
    <glyph glyph-name="Iogonek" unicode="&#x12e;" horiz-adv-x="320" 
d="M225 -109l34 -69q-11 -15 -35 -27.5t-66 -12.5q-49 0 -83 25.5t-34 74.5q0 37 26 66t64 52h-57v700h172v-700h-29q-77 -43 -77 -92q0 -37 35 -37q28 0 50 20z" />
    <glyph glyph-name="iogonek" unicode="&#x12f;" horiz-adv-x="276" 
d="M50 632q0 36 25.5 59t62.5 23t62.5 -23t25.5 -59t-25.5 -58.5t-62.5 -22.5t-62.5 22.5t-25.5 58.5zM191 -111l33 -69q-11 -15 -34.5 -27.5t-65.5 -12.5q-49 0 -83 25.5t-34 74.5q0 38 27 67.5t66 52.5h-36v460h147v-460h-25q-39 -21 -59.5 -46t-20.5 -48q0 -37 35 -37
q28 0 50 20z" />
    <glyph glyph-name="Idotaccent" unicode="&#x130;" horiz-adv-x="320" 
d="M71 858q0 36 26 59t63 23t62.5 -23t25.5 -59t-25.5 -59t-62.5 -23t-63 23t-26 59zM74 700h172v-700h-172v700z" />
    <glyph glyph-name="dotlessi" unicode="&#x131;" horiz-adv-x="276" 
d="M64 460h147v-460h-147v460z" />
    <glyph glyph-name="IJ" unicode="&#x132;" horiz-adv-x="624" 
d="M222 -63q15 -13 37 -23t44 -10q23 0 44 17.5t21 62.5v716h183v-754q0 -67 -31.5 -107.5t-84 -59t-115.5 -18.5q-58 0 -109 19t-81 38zM74 700h172v-700h-172v700z" />
    <glyph glyph-name="ij" unicode="&#x133;" horiz-adv-x="545" 
d="M319 632q0 36 25.5 59t62.5 23t62.5 -23t25.5 -59t-25.5 -58.5t-62.5 -22.5t-62.5 22.5t-25.5 58.5zM50 632q0 36 25.5 59t62.5 23t62.5 -23t25.5 -59t-25.5 -58.5t-62.5 -22.5t-62.5 22.5t-25.5 58.5zM239 -77q18 -25 47 -25q48 0 48 68v494h145v-532q0 -77 -43.5 -122
t-129.5 -45q-51 0 -81.5 18t-46.5 33zM64 460h147v-460h-147v460z" />
    <glyph glyph-name="Jcircumflex" unicode="&#x134;" horiz-adv-x="330" 
d="M165 862l-91 -86l-106 72l197 140l197 -140l-106 -72zM-72 -63q15 -13 37 -23t44 -10q23 0 44 17.5t21 62.5v716h183v-754q0 -67 -31.5 -107.5t-84 -59t-115.5 -18.5q-58 0 -109 19t-81 38z" />
    <glyph glyph-name="jcircumflex" unicode="&#x135;" horiz-adv-x="271" 
d="M134 616l-92 -85l-106 71l198 140l197 -140l-106 -71zM-33 -77q18 -25 46 -25q48 0 48 68v494h146v-532q0 -77 -44 -122t-130 -45q-51 0 -81 18t-46 33z" />
    <glyph glyph-name="uni0136" unicode="&#x136;" horiz-adv-x="700" 
d="M74 700h175v-276l238 276h199l-284 -328l299 -372h-205l-247 306v-306h-175v700zM330 -60l153 -32l-127 -250l-114 23z" />
    <glyph glyph-name="uni0137" unicode="&#x137;" horiz-adv-x="577" 
d="M371 460h180l-197 -190l217 -270h-178l-190 234v-234h-145v780h145v-482zM257 -60l153 -32l-127 -250l-114 23z" />
    <glyph glyph-name="kgreenlandic" unicode="&#x138;" horiz-adv-x="577" 
d="M58 460h145v-162l168 162h180l-197 -190l217 -270h-178l-190 234v-234h-145v460z" />
    <glyph glyph-name="Lacute" unicode="&#x139;" horiz-adv-x="528" 
d="M460 926l-180 -150l-85 43l150 160zM74 700h169v-554h281v-146h-450v700z" />
    <glyph glyph-name="lacute" unicode="&#x13a;" horiz-adv-x="270" 
d="M297 990l-180 -150l-86 42l150 160zM59 780h152v-780h-152v780z" />
    <glyph glyph-name="uni013B" unicode="&#x13b;" horiz-adv-x="528" 
d="M74 700h169v-554h281v-146h-450v700zM267 -60l152 -32l-126 -250l-114 23z" />
    <glyph glyph-name="uni013C" unicode="&#x13c;" horiz-adv-x="270" 
d="M59 780h152v-780h-152v780zM103 -60l152 -32l-125 -250l-115 23z" />
    <glyph glyph-name="Lcaron" unicode="&#x13d;" horiz-adv-x="528" 
d="M412 716l152 -32l-125 -250l-115 23zM74 700h169v-554h281v-146h-450v700z" />
    <glyph glyph-name="lcaron" unicode="&#x13e;" horiz-adv-x="270" 
d="M59 780h152v-780h-152v780zM349 780l152 -32l-125 -250l-115 23z" />
    <glyph glyph-name="Ldot" unicode="&#x13f;" horiz-adv-x="528" 
d="M74 700h169v-554h281v-146h-450v700zM323 431q0 38 27 65t68 27t67.5 -27t26.5 -65t-26.5 -65.5t-67.5 -27.5t-68 27.5t-27 65.5z" />
    <glyph glyph-name="ldot" unicode="&#x140;" horiz-adv-x="476" 
d="M59 780h152v-780h-152v780zM252 409q0 38 27 65t68 27t67.5 -27t26.5 -65t-26.5 -65.5t-67.5 -27.5t-68 27.5t-27 65.5z" />
    <glyph glyph-name="Lslash" unicode="&#x141;" horiz-adv-x="534" 
d="M5 309l-39 73l108 73v245h169v-131l87 59l39 -74l-126 -85v-323h281v-146h-450v355z" />
    <glyph glyph-name="lslash" unicode="&#x142;" horiz-adv-x="270" 
d="M-8 309l-38 73l105 69v329h152v-228l74 49l39 -73l-113 -75v-453h-152v353z" />
    <glyph glyph-name="Nacute" unicode="&#x143;" horiz-adv-x="793" 
d="M548 911l-180 -150l-86 43l150 160zM557 700h163v-735l-483 428v-393h-163v735l483 -428v393z" />
    <glyph glyph-name="nacute" unicode="&#x144;" 
d="M452 681l-180 -150l-85 42l150 160zM358 280q0 41 -15 62.5t-52 21.5q-36 0 -58 -21.5t-22 -62.5v-280h-152v460h152v-69q19 37 54 58.5t86 21.5q86 0 125.5 -45t39.5 -130v-296h-158v280z" />
    <glyph glyph-name="uni0145" unicode="&#x145;" horiz-adv-x="793" 
d="M557 700h163v-735l-483 428v-393h-163v735l483 -428v393zM363 -54l152 -32l-125 -250l-115 23z" />
    <glyph glyph-name="uni0146" unicode="&#x146;" 
d="M358 280q0 41 -15 62.5t-52 21.5q-36 0 -58 -21.5t-22 -62.5v-280h-152v460h152v-65q20 34 55 55t85 21q86 0 125.5 -45t39.5 -130v-296h-158v280zM255 -60l152 -32l-125 -250l-115 23z" />
    <glyph glyph-name="Ncaron" unicode="&#x147;" horiz-adv-x="793" 
d="M375 902l91 86l106 -72l-197 -140l-197 140l106 72zM557 700h163v-735l-483 428v-393h-163v735l483 -428v393z" />
    <glyph glyph-name="ncaron" unicode="&#x148;" 
d="M287 656l91 86l106 -71l-197 -140l-197 140l106 71zM358 280q0 41 -15 62.5t-52 21.5q-36 0 -58 -21.5t-22 -62.5v-280h-152v460h152v-65q20 34 55 55t85 21q86 0 125.5 -45t39.5 -130v-296h-158v280z" />
    <glyph glyph-name="napostrophe" unicode="&#x149;" horiz-adv-x="747" 
d="M111 700h158l-103 -255h-108zM384 460v-64q21 34 56 54.5t84 20.5q86 0 125 -45t39 -130v-296h-158v280q0 41 -15 62.5t-52 21.5q-36 0 -57.5 -21.5t-21.5 -62.5v-280h-152v460h152z" />
    <glyph glyph-name="Eng" unicode="&#x14a;" horiz-adv-x="793" 
d="M546 -215q-38 0 -67.5 12t-59.5 39l61 111q21 -26 46 -26q48 0 48 68v97l-337 307v-393h-163v735l483 -428v393h163v-749q0 -77 -46.5 -121.5t-127.5 -44.5z" />
    <glyph glyph-name="eng" unicode="&#x14b;" 
d="M330 -239q-71 0 -128 51l61 111q19 -25 47 -25q48 0 48 68v314q0 84 -67 84q-37 0 -58.5 -22.5t-21.5 -64.5v-277h-152v460h152v-68q45 79 140 79q165 0 165 -175v-368q0 -79 -48.5 -123t-137.5 -44z" />
    <glyph glyph-name="Omacron" unicode="&#x14c;" horiz-adv-x="821" 
d="M225 776v132h371v-132h-371zM34 350q0 81 28.5 148t80 116t120 75.5t148.5 26.5q81 0 150 -26.5t119.5 -75.5t79 -116t28.5 -148t-27.5 -149t-78.5 -118t-119.5 -77.5t-151.5 -27.5q-82 0 -151 27.5t-120 77.5t-78.5 118t-27.5 149zM213 350q0 -62 24.5 -109.5
t69.5 -74.5t104 -27q60 0 104 27t68.5 74.5t24.5 109.5t-24 109.5t-68 74.5t-105 27q-59 0 -104 -27t-69.5 -74.5t-24.5 -109.5z" />
    <glyph glyph-name="omacron" unicode="&#x14d;" horiz-adv-x="589" 
d="M109 531v131h371v-131h-371zM32 230q0 73 34.5 127t94 84t134.5 30q76 0 135 -30t93.5 -84t34.5 -127q0 -72 -34.5 -126t-93.5 -84t-135 -30q-75 0 -134.5 30t-94 84t-34.5 126zM188 230q0 -53 31.5 -84t75.5 -31t75.5 31t31.5 84t-31.5 84.5t-75.5 31.5t-75.5 -31.5
t-31.5 -84.5z" />
    <glyph glyph-name="Obreve" unicode="&#x14e;" horiz-adv-x="821" 
d="M246 922h100q0 -26 18 -42.5t47 -16.5t47 16.5t18 42.5h99q0 -61 -42.5 -103.5t-121.5 -42.5t-122 42.5t-43 103.5zM34 350q0 81 28.5 148t80 116t120 75.5t148.5 26.5q81 0 150 -26.5t119.5 -75.5t79 -116t28.5 -148t-27.5 -149t-78.5 -118t-119.5 -77.5t-151.5 -27.5
q-82 0 -151 27.5t-120 77.5t-78.5 118t-27.5 149zM213 350q0 -62 24.5 -109.5t69.5 -74.5t104 -27q60 0 104 27t68.5 74.5t24.5 109.5t-24 109.5t-68 74.5t-105 27q-59 0 -104 -27t-69.5 -74.5t-24.5 -109.5z" />
    <glyph glyph-name="obreve" unicode="&#x14f;" horiz-adv-x="589" 
d="M131 677h99q0 -26 18 -42.5t47 -16.5t47 16.5t18 42.5h99q0 -61 -42.5 -103.5t-121.5 -42.5t-121.5 42.5t-42.5 103.5zM32 230q0 73 34.5 127t94 84t134.5 30q76 0 135 -30t93.5 -84t34.5 -127q0 -72 -34.5 -126t-93.5 -84t-135 -30q-75 0 -134.5 30t-94 84t-34.5 126z
M188 230q0 -53 31.5 -84t75.5 -31t75.5 31t31.5 84t-31.5 84.5t-75.5 31.5t-75.5 -31.5t-31.5 -84.5z" />
    <glyph glyph-name="Ohungarumlaut" unicode="&#x150;" horiz-adv-x="821" 
d="M318 776l-93 25l114 188l123 -30zM504 776l-92 25l113 188l124 -30zM34 350q0 81 28.5 148t80 116t120 75.5t148.5 26.5q81 0 150 -26.5t119.5 -75.5t79 -116t28.5 -148t-27.5 -149t-78.5 -118t-119.5 -77.5t-151.5 -27.5q-82 0 -151 27.5t-120 77.5t-78.5 118t-27.5 149
zM213 350q0 -62 24.5 -109.5t69.5 -74.5t104 -27q60 0 104 27t68.5 74.5t24.5 109.5t-24 109.5t-68 74.5t-105 27q-59 0 -104 -27t-69.5 -74.5t-24.5 -109.5z" />
    <glyph glyph-name="ohungarumlaut" unicode="&#x151;" horiz-adv-x="589" 
d="M202 531l-93 25l114 188l123 -30zM388 531l-92 25l113 188l124 -30zM32 230q0 73 34.5 127t94 84t134.5 30q76 0 135 -30t93.5 -84t34.5 -127q0 -72 -34.5 -126t-93.5 -84t-135 -30q-75 0 -134.5 30t-94 84t-34.5 126zM188 230q0 -53 31.5 -84t75.5 -31t75.5 31t31.5 84
t-31.5 84.5t-75.5 31.5t-75.5 -31.5t-31.5 -84.5z" />
    <glyph glyph-name="OE" unicode="&#x152;" horiz-adv-x="985" 
d="M950 139v-139h-560q-101 0 -182 44t-127.5 122.5t-46.5 183.5t46.5 183.5t127 122.5t182.5 44h559v-139h-302v-125h282v-137h-282v-160h303zM421 149h63v402h-63q-104 0 -158 -51t-54 -150t54.5 -150t157.5 -51z" />
    <glyph glyph-name="oe" unicode="&#x153;" horiz-adv-x="900" 
d="M35 230q0 75 31 128.5t83 82.5t114 29q69 0 117.5 -35.5t69.5 -99.5q26 62 80.5 98.5t127.5 36.5q55 0 102 -29t76 -81.5t29 -125.5q0 -6 -0.5 -18t-1.5 -18h-347q7 -50 34 -76t69 -26q41 0 67 17.5t46 45.5l134 -33q-30 -57 -90 -96.5t-134 -39.5q-67 0 -117.5 36
t-74.5 97q-22 -63 -70 -98t-117 -35q-62 0 -114 29t-83 83t-31 128zM617 369q-37 0 -65.5 -21.5t-34.5 -66.5h186q-5 42 -26.5 65t-59.5 23zM185 230q0 -56 31 -85.5t76 -29.5q44 0 71.5 29.5t27.5 85.5t-27.5 85.5t-71.5 29.5q-45 0 -76 -29.5t-31 -85.5z" />
    <glyph glyph-name="Racute" unicode="&#x154;" horiz-adv-x="647" 
d="M469 926l-180 -150l-85 43l150 160zM74 700h255q134 0 203.5 -64t69.5 -165q0 -72 -35.5 -126.5t-104.5 -80.5l182 -264h-199l-150 242h-52v-242h-169v700zM317 556h-74v-182h74q51 0 80 24t29 67q0 44 -29 67.5t-80 23.5z" />
    <glyph glyph-name="racute" unicode="&#x155;" horiz-adv-x="411" 
d="M394 681l-180 -150l-85 43l150 160zM341 303q-12 12 -25.5 19t-33.5 7q-33 0 -53.5 -26t-20.5 -76v-227h-149v460h149v-58q22 32 52.5 50.5t63.5 18.5q25 0 48 -10.5t35 -27.5z" />
    <glyph glyph-name="uni0156" unicode="&#x156;" horiz-adv-x="647" 
d="M74 700h255q134 0 203.5 -64t69.5 -165q0 -72 -35.5 -126.5t-104.5 -80.5l182 -264h-199l-150 242h-52v-242h-169v700zM317 556h-74v-182h74q51 0 80 24t29 67q0 44 -29 67.5t-80 23.5zM327 -60l151 -32l-125 -250l-114 23z" />
    <glyph glyph-name="uni0157" unicode="&#x157;" horiz-adv-x="411" 
d="M341 303q-12 12 -25.5 19t-33.5 7q-33 0 -53.5 -26t-20.5 -76v-227h-149v460h149v-58q22 32 52.5 50.5t63.5 18.5q25 0 48 -10.5t35 -27.5zM102 -60l151 -32l-125 -250l-114 23z" />
    <glyph glyph-name="Rcaron" unicode="&#x158;" horiz-adv-x="647" 
d="M313 902l91 86l107 -72l-198 -140l-197 140l106 72zM74 700h255q134 0 203.5 -64t69.5 -165q0 -72 -35.5 -126.5t-104.5 -80.5l182 -264h-199l-150 242h-52v-242h-169v700zM317 556h-74v-182h74q51 0 80 24t29 67q0 44 -29 67.5t-80 23.5z" />
    <glyph glyph-name="rcaron" unicode="&#x159;" horiz-adv-x="411" 
d="M233 657l91 85l106 -71l-197 -140l-198 140l107 71zM341 303q-12 12 -25.5 19t-33.5 7q-33 0 -53.5 -26t-20.5 -76v-227h-149v460h149v-58q22 32 52.5 50.5t63.5 18.5q25 0 48 -10.5t35 -27.5z" />
    <glyph glyph-name="Sacute" unicode="&#x15a;" horiz-adv-x="625" 
d="M501 926l-180 -150l-85 43l150 160zM153 251q36 -63 75.5 -94.5t94.5 -31.5q85 0 85 68q0 30 -19.5 48t-52 31.5t-72.5 29.5q-26 10 -58.5 26.5t-62.5 41.5t-49.5 61.5t-19.5 87.5q0 59 31.5 103.5t87.5 69t128 24.5q75 0 127 -23.5t83.5 -59t45.5 -71.5l-128 -73
q-22 39 -51 61.5t-70 22.5q-37 0 -58.5 -16.5t-21.5 -43.5q0 -24 22.5 -40.5t59.5 -30.5t78 -29q49 -17 89.5 -44.5t65 -69.5t24.5 -103q0 -107 -72.5 -162.5t-195.5 -55.5q-64 0 -120.5 23.5t-99.5 65.5t-65 100z" />
    <glyph glyph-name="sacute" unicode="&#x15b;" horiz-adv-x="456" 
d="M405 681l-180 -150l-86 42l150 160zM83 175q51 -45 89.5 -61t62.5 -16q20 0 33 6.5t13 23.5t-19.5 27.5t-48 20t-55.5 21.5q-30 14 -56.5 31t-43 42.5t-16.5 65.5q0 44 25 74t67 45t91 15q59 0 109.5 -19.5t87.5 -48.5l-54 -99q-27 26 -66 41.5t-67 15.5q-48 0 -48 -28
q0 -13 17.5 -23.5t44.5 -20t56 -20.5q33 -12 62 -29t47 -43t18 -66q0 -79 -46.5 -114t-130.5 -35q-73 0 -132.5 26t-103.5 68z" />
    <glyph glyph-name="Scircumflex" unicode="&#x15c;" horiz-adv-x="625" 
d="M321 862l-91 -86l-106 72l197 140l198 -140l-107 -72zM153 251q36 -63 75.5 -94.5t94.5 -31.5q85 0 85 68q0 30 -19.5 48t-52 31.5t-72.5 29.5q-26 10 -58.5 26.5t-62.5 41.5t-49.5 61.5t-19.5 87.5q0 59 31.5 103.5t87.5 69t128 24.5q75 0 127 -23.5t83.5 -59
t45.5 -71.5l-128 -73q-22 39 -51 61.5t-70 22.5q-37 0 -58.5 -16.5t-21.5 -43.5q0 -24 22.5 -40.5t59.5 -30.5t78 -29q49 -17 89.5 -44.5t65 -69.5t24.5 -103q0 -107 -72.5 -162.5t-195.5 -55.5q-64 0 -120.5 23.5t-99.5 65.5t-65 100z" />
    <glyph glyph-name="scircumflex" unicode="&#x15d;" horiz-adv-x="456" 
d="M237 616l-91 -85l-106 71l197 140l198 -140l-106 -71zM83 175q51 -45 89.5 -61t62.5 -16q20 0 33 6.5t13 23.5t-19.5 27.5t-48 20t-55.5 21.5q-30 14 -56.5 31t-43 42.5t-16.5 65.5q0 44 25 74t67 45t91 15q59 0 109.5 -19.5t87.5 -48.5l-54 -99q-27 26 -66 41.5
t-67 15.5q-48 0 -48 -28q0 -13 17.5 -23.5t44.5 -20t56 -20.5q33 -12 62 -29t47 -43t18 -66q0 -79 -46.5 -114t-130.5 -35q-73 0 -132.5 26t-103.5 68z" />
    <glyph glyph-name="Scedilla" unicode="&#x15e;" horiz-adv-x="625" 
d="M153 251q36 -63 75.5 -94.5t94.5 -31.5q85 0 85 68q0 30 -19.5 48t-52 31.5t-72.5 29.5q-26 10 -58.5 25.5t-62.5 40t-49.5 61.5t-19.5 89q0 59 30.5 103.5t86 69.5t130.5 25t126.5 -23t83 -58t46.5 -73l-128 -73q-22 39 -52.5 61.5t-71.5 22.5q-37 0 -57 -16.5
t-20 -43.5q0 -24 22.5 -40.5t59.5 -30.5t78 -29q49 -17 89.5 -44.5t65 -69.5t24.5 -103q0 -101 -66 -156t-175 -61l-31 -44q8 2 17.5 3t19.5 1q20 0 41 -10.5t35.5 -32.5t14.5 -55q0 -36 -19.5 -60t-49.5 -36.5t-62 -12.5q-42 0 -75.5 8.5t-68.5 30.5l46 69q19 -13 41 -19
t37 -6q54 0 54 35q0 20 -18.5 26t-41.5 6q-7 0 -32 -2.5t-51 -13.5l53 118q-76 15 -135.5 63t-86.5 120z" />
    <glyph glyph-name="scedilla" unicode="&#x15f;" horiz-adv-x="456" 
d="M82 176q57 -49 96 -65.5t59 -16.5t32 9t12 26q0 27 -29.5 40.5t-68.5 26.5q-33 12 -62.5 28t-48.5 43t-19 72q0 65 49 98t123 33q59 0 108 -19.5t89 -48.5l-54 -98q-27 26 -62.5 44t-63.5 18q-49 0 -49 -30q0 -17 16 -27.5t41.5 -19t54.5 -19.5q33 -12 62 -29t47 -43
t18 -68q0 -74 -40.5 -109.5t-112.5 -38.5l-30 -43q8 2 17 2.5t19 0.5q20 0 41.5 -10.5t36 -32t14.5 -54.5q0 -36 -20 -60t-50 -36.5t-62 -12.5q-42 0 -75 8.5t-68 30.5l45 69q19 -13 41 -19.5t37 -6.5q26 0 40.5 8.5t14.5 26.5q0 20 -19 26.5t-42 6.5q-7 0 -31 -3t-50 -14
l53 119q-50 9 -92.5 32t-79.5 55z" />
    <glyph glyph-name="Scaron" unicode="&#x160;" horiz-adv-x="625" 
d="M321 902l91 86l107 -72l-198 -140l-197 140l106 72zM153 251q36 -63 75.5 -94.5t94.5 -31.5q85 0 85 68q0 30 -19.5 48t-52 31.5t-72.5 29.5q-26 10 -58.5 26.5t-62.5 41.5t-49.5 61.5t-19.5 87.5q0 59 31.5 103.5t87.5 69t128 24.5q75 0 127 -23.5t83.5 -59t45.5 -71.5
l-128 -73q-22 39 -51 61.5t-70 22.5q-37 0 -58.5 -16.5t-21.5 -43.5q0 -24 22.5 -40.5t59.5 -30.5t78 -29q49 -17 89.5 -44.5t65 -69.5t24.5 -103q0 -107 -72.5 -162.5t-195.5 -55.5q-64 0 -120.5 23.5t-99.5 65.5t-65 100z" />
    <glyph glyph-name="scaron" unicode="&#x161;" horiz-adv-x="456" 
d="M225 644l91 85l106 -71l-197 -140l-198 140l107 71zM83 175q51 -45 89.5 -61t62.5 -16q20 0 33 6.5t13 23.5t-19.5 27.5t-48 20t-55.5 21.5q-30 14 -56.5 31t-43 42.5t-16.5 65.5q0 44 25 74t67 45t91 15q59 0 109.5 -19.5t87.5 -48.5l-54 -99q-27 26 -66 41.5t-67 15.5
q-48 0 -48 -28q0 -13 17.5 -23.5t44.5 -20t56 -20.5q33 -12 62 -29t47 -43t18 -66q0 -79 -46.5 -114t-130.5 -35q-73 0 -132.5 26t-103.5 68z" />
    <glyph glyph-name="uni0162" unicode="&#x162;" horiz-adv-x="561" 
d="M226 11l110 -3l-87 -122q8 2 17.5 2.5t19.5 0.5q20 0 41.5 -10.5t36 -32t14.5 -54.5q0 -36 -20 -60.5t-50 -37t-62 -12.5q-42 0 -75.5 9t-68.5 31l46 68q19 -13 41 -19t37 -6q26 0 40.5 8.5t14.5 26.5q0 20 -19 26t-42 6q-7 0 -31.5 -2.5t-50.5 -13.5zM4 548v152h554
v-152h-192v-548h-170v548h-192z" />
    <glyph glyph-name="uni0163" unicode="&#x163;" horiz-adv-x="318" 
d="M104 11l110 -3l-87 -122q8 2 17.5 2.5t19.5 0.5q20 0 41.5 -10.5t36 -32t14.5 -54.5q0 -36 -20 -60.5t-50 -37t-62 -12.5q-42 0 -75.5 9t-68.5 31l46 68q19 -13 41 -19t37 -6q26 0 40.5 8.5t14.5 26.5q0 20 -19 26t-42 6q-7 0 -31.5 -2.5t-50.5 -13.5zM5 460h81v160h146
v-160h81v-125h-81v-335h-146v335h-81v125z" />
    <glyph glyph-name="Tcaron" unicode="&#x164;" horiz-adv-x="561" 
d="M281 902l91 86l106 -72l-197 -140l-198 140l107 72zM4 548v152h554v-152h-192v-548h-170v548h-192z" />
    <glyph glyph-name="tcaron" unicode="&#x165;" horiz-adv-x="484" 
d="M381 786l151 -32l-125 -250l-114 23zM5 460h81v160h146v-160h81v-125h-81v-335h-146v335h-81v125z" />
    <glyph glyph-name="Tbar" unicode="&#x166;" horiz-adv-x="561" 
d="M94.7773 302v131h373.894v-131h-373.894zM4 548v152h554v-152h-192v-548h-170v548h-192z" />
    <glyph glyph-name="tbar" unicode="&#x167;" horiz-adv-x="318" 
d="M20.4492 133v131h274.727v-131h-274.727zM5 460h81v160h146v-160h81v-125h-81v-335h-146v335h-81v125z" />
    <glyph glyph-name="Utilde" unicode="&#x168;" horiz-adv-x="701" 
d="M154 842q8 37 40 65.5t80 28.5q25 0 41.5 -8t30 -18t28.5 -18t36 -8q19 0 35 15t31 39l71 -75q-8 -18 -28 -38t-47.5 -33.5t-58.5 -13.5q-27 0 -49.5 13.5t-44 26.5t-46.5 13q-19 0 -29 -9.5t-14 -21.5t-4 -20zM69 700h169v-458q0 -53 28 -86t84 -33t84.5 33t28.5 86v458
h169v-470q0 -88 -37.5 -145.5t-101.5 -85.5t-143 -28t-142.5 28t-101 85.5t-37.5 145.5v470z" />
    <glyph glyph-name="utilde" unicode="&#x169;" 
d="M91 596q8 37 40 66t80 29q25 0 41.5 -8t30 -18t28.5 -18t36 -8q19 0 35 14.5t31 38.5l71 -74q-8 -18 -28 -38t-47.5 -34t-58.5 -14q-27 0 -49.5 13.5t-44 26.5t-46.5 13q-19 0 -29 -9.5t-14 -21.5t-4 -20zM218 180q0 -40 14.5 -62t51.5 -22q36 0 58 22t22 62v280h152
v-460h-152v69q-19 -37 -54 -58.5t-86 -21.5q-85 0 -125 45t-40 130v296h159v-280z" />
    <glyph glyph-name="Umacron" unicode="&#x16a;" horiz-adv-x="701" 
d="M165 776v132h372v-132h-372zM69 700h169v-458q0 -53 28 -86t84 -33t84.5 33t28.5 86v458h169v-470q0 -88 -37.5 -145.5t-101.5 -85.5t-143 -28t-142.5 28t-101 85.5t-37.5 145.5v470z" />
    <glyph glyph-name="umacron" unicode="&#x16b;" 
d="M102 531v131h372v-131h-372zM218 180q0 -40 14.5 -62t51.5 -22q36 0 58 22t22 62v280h152v-460h-152v69q-19 -37 -54 -58.5t-86 -21.5q-85 0 -125 45t-40 130v296h159v-280z" />
    <glyph glyph-name="Ubreve" unicode="&#x16c;" horiz-adv-x="701" 
d="M186 922h99q0 -26 18 -42.5t47 -16.5t47.5 16.5t18.5 42.5h99q0 -61 -43 -103.5t-122 -42.5t-121.5 42.5t-42.5 103.5zM69 700h169v-458q0 -53 28 -86t84 -33t84.5 33t28.5 86v458h169v-470q0 -88 -37.5 -145.5t-101.5 -85.5t-143 -28t-142.5 28t-101 85.5t-37.5 145.5
v470z" />
    <glyph glyph-name="ubreve" unicode="&#x16d;" 
d="M123 677h99q0 -26 18.5 -42.5t47.5 -16.5t47 16.5t18 42.5h99q0 -61 -42.5 -103.5t-121.5 -42.5t-122 42.5t-43 103.5zM218 180q0 -40 14.5 -62t51.5 -22q36 0 58 22t22 62v280h152v-460h-152v69q-19 -37 -54 -58.5t-86 -21.5q-85 0 -125 45t-40 130v296h159v-280z" />
    <glyph glyph-name="Uring" unicode="&#x16e;" horiz-adv-x="701" 
d="M225 892q0 52 36.5 84t88.5 32q53 0 89.5 -32t36.5 -84t-36.5 -84t-89.5 -32q-52 0 -88.5 32t-36.5 84zM304 892q0 -22 13.5 -35t32.5 -13t32.5 13t13.5 35q0 23 -13.5 35.5t-32.5 12.5t-32.5 -12.5t-13.5 -35.5zM69 700h169v-458q0 -53 28 -86t84 -33t84.5 33t28.5 86
v458h169v-470q0 -88 -37.5 -145.5t-101.5 -85.5t-143 -28t-142.5 28t-101 85.5t-37.5 145.5v470z" />
    <glyph glyph-name="uring" unicode="&#x16f;" 
d="M162 646q0 52 36.5 84t88.5 32q53 0 89.5 -32t36.5 -84t-36.5 -83.5t-89.5 -31.5q-52 0 -88.5 31.5t-36.5 83.5zM241 646q0 -22 13.5 -34.5t32.5 -12.5t33 12.5t14 34.5q0 23 -14 35.5t-33 12.5t-32.5 -12.5t-13.5 -35.5zM218 180q0 -40 14.5 -62t51.5 -22q36 0 58 22
t22 62v280h152v-460h-152v69q-19 -37 -54 -58.5t-86 -21.5q-85 0 -125 45t-40 130v296h159v-280z" />
    <glyph glyph-name="Uhungarumlaut" unicode="&#x170;" horiz-adv-x="701" 
d="M258 776l-93 25l114 188l123 -30zM444 776l-92 25l113 188l124 -30zM69 700h169v-458q0 -53 28 -86t84 -33t84.5 33t28.5 86v458h169v-470q0 -88 -37.5 -145.5t-101.5 -85.5t-143 -28t-142.5 28t-101 85.5t-37.5 145.5v470z" />
    <glyph glyph-name="uhungarumlaut" unicode="&#x171;" 
d="M195 531l-93 25l114 188l123 -30zM381 531l-92 25l113 188l124 -30zM218 180q0 -40 14.5 -62t51.5 -22q36 0 58 22t22 62v280h152v-460h-152v69q-20 -37 -54.5 -58.5t-85.5 -21.5q-85 0 -125 46.5t-40 128.5v296h159v-280z" />
    <glyph glyph-name="Uogonek" unicode="&#x172;" horiz-adv-x="701" 
d="M396 -135l33 -69q-11 -15 -35 -27.5t-66 -12.5q-49 0 -82.5 25.5t-33.5 74.5q0 33 20 59t51.5 47t66.5 39l41 -25q-39 -21 -60 -46t-21 -48q0 -37 36 -37q28 0 50 20zM69 700h169v-458q0 -53 28 -86t84 -33t84.5 33t28.5 86v458h169v-470q0 -88 -37.5 -145.5
t-101.5 -85.5t-143 -28t-142.5 28t-101 85.5t-37.5 145.5v470z" />
    <glyph glyph-name="uogonek" unicode="&#x173;" 
d="M276 -117l33 -69q-11 -15 -35 -27.5t-66 -12.5q-49 0 -82.5 25.5t-33.5 74.5q0 33 20 59t51.5 47t66.5 39l41 -25q-39 -21 -60 -46t-21 -48q0 -37 36 -37q28 0 50 20zM218 180q0 -40 14.5 -62t51.5 -22q36 0 58 22t22 62v280h152v-460h-152v69q-20 -37 -54.5 -58.5
t-85.5 -21.5q-85 0 -125 46.5t-40 128.5v296h159v-280z" />
    <glyph glyph-name="Wcircumflex" unicode="&#x174;" horiz-adv-x="1065" 
d="M532 881l-91 -86l-106 71l197 140l198 -140l-106 -71zM729 285l131 415h201l-303 -741l-226 421l-225 -421l-303 741h201l131 -415l196 450z" />
    <glyph glyph-name="wcircumflex" unicode="&#x175;" horiz-adv-x="761" 
d="M379 641l-91 -86l-107 71l198 140l197 -140l-106 -71zM-8 460h159l96 -235l132 270l135 -271l96 236h159l-238 -489l-152 273l-149 -273z" />
    <glyph glyph-name="Ycircumflex" unicode="&#x176;" horiz-adv-x="660" 
d="M330 862l-91 -86l-106 72l197 140l198 -140l-107 -72zM467 700h195l-245 -415v-285h-173v284l-245 416h195l136 -263z" />
    <glyph glyph-name="ycircumflex" unicode="&#x177;" horiz-adv-x="521" 
d="M261 616l-92 -85l-106 71l198 140l197 -140l-106 -71zM531 460l-300 -680h-153l112 257l-199 423h167l109 -271l108 271h156z" />
    <glyph glyph-name="Ydieresis" unicode="&#x178;" horiz-adv-x="660" 
d="M102 869q0 36 25 59t62 23t63 -23t26 -59t-26 -59t-63 -23t-62 23t-25 59zM383 869q0 36 25.5 59t62.5 23t62.5 -23t25.5 -59t-25.5 -59t-62.5 -23t-62.5 23t-25.5 59zM467 700h195l-245 -415v-285h-173v284l-245 416h195l136 -263z" />
    <glyph glyph-name="Zacute" unicode="&#x179;" horiz-adv-x="620" 
d="M504 926l-180 -150l-86 43l150 160zM57 548v152h549l-330 -554h295v-146h-562l326 548h-278z" />
    <glyph glyph-name="zacute" unicode="&#x17a;" horiz-adv-x="522" 
d="M455 688l-180 -150l-86 43l150 160zM256 322h-198v138h450l-230 -322h197v-138h-460z" />
    <glyph glyph-name="Zdotaccent" unicode="&#x17b;" horiz-adv-x="620" 
d="M243 858q0 36 25.5 59t62.5 23t62.5 -23t25.5 -59t-25.5 -59t-62.5 -23t-62.5 23t-25.5 59zM57 548v152h549l-330 -554h295v-146h-562l326 548h-278z" />
    <glyph glyph-name="zdotaccent" unicode="&#x17c;" horiz-adv-x="522" 
d="M194 624q0 36 25.5 59t62.5 23t63 -23t26 -59t-26 -59t-63 -23t-62.5 23t-25.5 59zM256 322h-198v138h450l-230 -322h197v-138h-460z" />
    <glyph glyph-name="Zcaron" unicode="&#x17d;" horiz-adv-x="620" 
d="M331 902l91 86l107 -72l-198 -140l-197 140l106 72zM57 548v152h549l-330 -554h295v-146h-562l326 548h-278z" />
    <glyph glyph-name="zcaron" unicode="&#x17e;" horiz-adv-x="516" 
d="M282 656l92 85l106 -71l-198 -140l-197 140l106 71zM257 322h-199v138h450l-231 -322h198v-138h-460z" />
    <glyph glyph-name="florin" unicode="&#x192;" horiz-adv-x="600" 
d="M193 -200q-32 0 -61.5 12.5t-67.5 40.5l59 107q26 -26 45 -26q20 0 33 19t15 51l20 331h-69l9 125h66l8 169q5 77 52 122t117 44q32 0 61.5 -11.5t66.5 -40.5l-58 -107q-14 14 -25 19.5t-21 5.5q-20 0 -32.5 -19t-14.5 -51l-9 -131h91l-8 -125h-90l-19 -369
q-4 -76 -50.5 -121.5t-117.5 -44.5z" />
    <glyph glyph-name="uni0212" unicode="&#x212;" horiz-adv-x="647" 
d="M163 776q0 62 42.5 104t121.5 42t121.5 -42t42.5 -104h-99q0 26 -18 43t-47 17t-47 -17t-18 -43h-99zM74 700h255q134 0 203.5 -64t69.5 -165q0 -72 -35.5 -126.5t-104.5 -80.5l182 -264h-199l-150 242h-52v-242h-169v700zM317 556h-74v-182h74q51 0 80 24t29 67
q0 44 -29 67.5t-80 23.5z" />
    <glyph glyph-name="uni0213" unicode="&#x213;" horiz-adv-x="411" 
d="M69 531q0 62 42.5 104.5t121.5 42.5t122 -42.5t43 -104.5h-100q0 26 -18 43t-47 17t-47 -17t-18 -43h-99zM341 303q-12 12 -25.5 19t-33.5 7q-33 0 -53.5 -26t-20.5 -76v-227h-149v460h149v-58q22 32 52.5 50.5t63.5 18.5q25 0 48 -10.5t35 -27.5z" />
    <glyph glyph-name="uni0218" unicode="&#x218;" horiz-adv-x="625" 
d="M153 251q36 -63 75.5 -94.5t94.5 -31.5q85 0 85 68q0 30 -19.5 48t-52 31.5t-72.5 29.5q-26 10 -58.5 26.5t-62.5 41.5t-49.5 61.5t-19.5 87.5q0 59 31.5 103.5t87.5 69t128 24.5q75 0 127 -23.5t83.5 -59t45.5 -71.5l-128 -73q-22 39 -51 61.5t-70 22.5
q-37 0 -58.5 -16.5t-21.5 -43.5q0 -24 22.5 -40.5t59.5 -30.5t78 -29q49 -17 89.5 -44.5t65 -69.5t24.5 -103q0 -107 -72.5 -162.5t-195.5 -55.5q-64 0 -120.5 23.5t-99.5 65.5t-65 100zM262 -70l152 -32l-126 -250l-114 23z" />
    <glyph glyph-name="uni0219" unicode="&#x219;" horiz-adv-x="456" 
d="M83 175q51 -45 89.5 -61t62.5 -16q20 0 33 6.5t13 23.5t-19.5 27.5t-48 20t-55.5 21.5q-30 14 -56.5 31t-43 42.5t-16.5 65.5q0 44 25 74t67 45t91 15q59 0 109.5 -19.5t87.5 -48.5l-54 -99q-27 26 -66 41.5t-67 15.5q-48 0 -48 -28q0 -13 17.5 -23.5t44.5 -20t56 -20.5
q33 -12 62 -29t47 -43t18 -66q0 -79 -46.5 -114t-130.5 -35q-73 0 -132.5 26t-103.5 68zM198 -67l152 -32l-125 -250l-115 23z" />
    <glyph glyph-name="uni021A" unicode="&#x21a;" horiz-adv-x="561" 
d="M4 548v152h554v-152h-192v-548h-170v548h-192zM249 -60l152 -32l-126 -250l-114 23z" />
    <glyph glyph-name="uni021B" unicode="&#x21b;" horiz-adv-x="318" 
d="M5 460h81v160h146v-160h81v-125h-81v-335h-146v335h-81v125zM127 -60l152 -32l-126 -250l-114 23z" />
    <glyph glyph-name="uni0237" unicode="&#x237;" horiz-adv-x="271" 
d="M-33 -77q18 -25 46 -25q48 0 48 68v494h146v-532q0 -77 -44 -122t-130 -45q-51 0 -81 18t-46 33z" />
    <glyph glyph-name="circumflex" unicode="&#x2c6;" horiz-adv-x="480" 
d="M240 629l-91 -85l-107 71l198 140l198 -140l-107 -71z" />
    <glyph glyph-name="caron" unicode="&#x2c7;" horiz-adv-x="480" 
d="M240 676l91 86l107 -71l-198 -140l-198 140l107 71z" />
    <glyph glyph-name="breve" unicode="&#x2d8;" horiz-adv-x="546" 
d="M109 850h99q0 -26 18 -42.5t47 -16.5t47 16.5t18 42.5h99q0 -61 -42.5 -103.5t-121.5 -42.5t-121.5 42.5t-42.5 103.5z" />
    <glyph glyph-name="dotaccent" unicode="&#x2d9;" horiz-adv-x="300" 
d="M62 813q0 36 25.5 59t62.5 23t62.5 -23t25.5 -59t-25.5 -59t-62.5 -23t-62.5 23t-25.5 59z" />
    <glyph glyph-name="ring" unicode="&#x2da;" horiz-adv-x="328" 
d="M39 769q0 52 36 84t88 32q53 0 89.5 -32t36.5 -84t-36.5 -83.5t-89.5 -31.5q-52 0 -88 31.5t-36 83.5zM117 769q0 -22 13.5 -34.5t32.5 -12.5t33 12.5t14 34.5q0 23 -14 35.5t-33 12.5t-32.5 -12.5t-13.5 -35.5z" />
    <glyph glyph-name="ogonek" unicode="&#x2db;" horiz-adv-x="260" 
d="M194 -111l33 -69q-11 -15 -35 -27.5t-66 -12.5q-49 0 -82.5 25.5t-33.5 74.5q0 33 20 59t51.5 47t66.5 39l41 -25q-39 -21 -60 -46t-21 -48q0 -37 36 -37q28 0 50 20z" />
    <glyph glyph-name="tilde" unicode="&#x2dc;" horiz-adv-x="530" 
d="M75 638q8 37 40 65.5t80 28.5q25 0 41.5 -8t30 -18t28.5 -18t36 -8q19 0 34.5 14.5t30.5 38.5l72 -74q-8 -18 -28 -38t-48 -34t-59 -14q-27 0 -49.5 13.5t-43.5 26.5t-46 13q-19 0 -29 -9.5t-14 -21t-4 -19.5z" />
    <glyph glyph-name="hungarumlaut" unicode="&#x2dd;" horiz-adv-x="0" 
d="M93 523l-93 25l114 188l123 -30zM279 523l-92 25l113 188l124 -30z" />
    <glyph glyph-name="gravecomb" unicode="&#x300;" horiz-adv-x="0" 
d="M180 536l-180 150l116 52l150 -160z" />
    <glyph glyph-name="acutecomb" unicode="&#x301;" horiz-adv-x="0" 
d="M101 539l-86 42l150 160l116 -52z" />
    <glyph glyph-name="uni0302" unicode="&#x302;" horiz-adv-x="0" 
d="M67 550l-67 84l172 123l171 -123l-67 -84l-105 85z" />
    <glyph glyph-name="tildecomb" unicode="&#x303;" horiz-adv-x="0" 
d="M72 576l-72 62q6 25 24.5 46t45.5 34.5t56 13.5q26 0 41.5 -8t26.5 -18t24 -18t32 -8q21 0 38.5 14.5t33.5 38.5l70 -74q-8 -18 -31 -38t-52 -34t-57 -14q-29 0 -48.5 13.5t-37.5 26.5t-41 13q-25 0 -39 -16.5t-14 -33.5z" />
    <glyph glyph-name="uni0304" unicode="&#x304;" horiz-adv-x="0" 
d="M0 566v109h372v-109h-372z" />
    <glyph glyph-name="uni0306" unicode="&#x306;" horiz-adv-x="0" 
d="M164 546q-73 0 -118.5 40t-45.5 106h116q0 -26 13.5 -42.5t34.5 -16.5t34.5 16.5t13.5 42.5h116q0 -66 -45 -106t-119 -40z" />
    <glyph glyph-name="uni0307" unicode="&#x307;" horiz-adv-x="0" 
d="M88 532q-37 0 -62.5 24t-25.5 58q0 35 25.5 58.5t62.5 23.5q38 0 63 -23.5t25 -58.5q0 -34 -25 -58t-63 -24z" />
    <glyph glyph-name="uni0308" unicode="&#x308;" horiz-adv-x="0" 
d="M88 550q-40 0 -64 22.5t-24 59.5t24 59.5t64 22.5t64 -22.5t24 -59.5t-24 -59.5t-64 -22.5zM332 550q-40 0 -64 22.5t-24 59.5t24 59.5t64 22.5t64 -22.5t24 -59.5t-24 -59.5t-64 -22.5z" />
    <glyph glyph-name="uni030A" unicode="&#x30a;" horiz-adv-x="0" 
d="M128 520q-55 0 -91.5 34t-36.5 85t36.5 85.5t91.5 34.5q56 0 93 -34.5t37 -85.5t-37 -85t-93 -34zM128 590q21 0 35 14t14 35q0 22 -14 36t-35 14t-34.5 -14t-13.5 -36t13.5 -35.5t34.5 -13.5z" />
    <glyph glyph-name="uni030B" unicode="&#x30b;" horiz-adv-x="0" 
d="M93 523l-93 25l114 188l123 -30zM279 523l-92 25l113 188l124 -30z" />
    <glyph glyph-name="uni030C" unicode="&#x30c;" horiz-adv-x="0" 
d="M172 550l-172 124l67 83l104 -86l105 86l67 -83z" />
    <glyph glyph-name="uni0312" unicode="&#x312;" horiz-adv-x="0" 
d="M152 498l-152 32l126 250l114 -24z" />
    <glyph glyph-name="uni0326" unicode="&#x326;" horiz-adv-x="0" 
d="M82 -206l-82 30l94 156l109 -41z" />
    <glyph glyph-name="uni0327" unicode="&#x327;" horiz-adv-x="0" 
d="M126 -216q-33 0 -67 7.5t-59 21.5l29 62q38 -19 80 -19q41 0 41 36q0 28 -46 28h-30t-33 -2l69 153l86 -3l-49 -99q11 1 22 1q32 0 52.5 -24t20.5 -57q0 -45 -33 -75t-83 -30z" />
    <glyph glyph-name="uni0328" unicode="&#x328;" horiz-adv-x="0" 
d="M117 -220q-49 0 -83 25.5t-34 74.5q0 33 20 59t51.5 47t66.5 39l41 -25q-39 -21 -59.5 -46t-20.5 -48q0 -37 35 -37q28 0 50 20l33 -69q-11 -15 -34.5 -27.5t-65.5 -12.5z" />
    <glyph glyph-name="uni0394" unicode="&#x394;" horiz-adv-x="600" 
d="M18 0l282 800l281 -800h-563zM187 115h226l-113 373z" />
    <glyph glyph-name="uni03A9" unicode="&#x3a9;" horiz-adv-x="600" 
d="M66 0v130l88 -12q-43 47 -63.5 96t-20.5 103q0 69 30 123.5t82 86.5t118 32t118 -32t82 -86.5t30 -123.5q0 -54 -20 -103t-64 -96l88 12v-130h-209v104q36 29 57.5 75.5t21.5 92.5q0 56 -28.5 90.5t-75.5 34.5t-75.5 -34.5t-28.5 -90.5q0 -46 21.5 -92.5t57.5 -75.5v-104
h-209z" />
    <glyph glyph-name="uni03BC" unicode="&#x3bc;" horiz-adv-x="570" 
d="M218 460v-255q0 -40 14.5 -62t51.5 -22q36 0 58 22t22 62v255h152v-460h-152v53q-15 -24 -39 -40.5t-54 -16.5q-16 0 -32 4t-34 16v-336h-146v780h159z" />
    <glyph glyph-name="pi" unicode="&#x3c0;" horiz-adv-x="602" 
d="M30 460h532v-125h-80v-157q0 -33 7.5 -47.5t19.5 -18.5t27 -4v-117q-64 0 -107.5 7t-66 34.5t-22.5 88.5v214h-108v-335h-142v335h-60v125z" />
    <glyph glyph-name="uni0400" unicode="&#x400;" horiz-adv-x="603" 
d="M127 926l115 53l150 -160l-85 -43zM74 700h465v-139h-302v-125h282v-137h-282v-160h302v-139h-465v700z" />
    <glyph glyph-name="uni0401" unicode="&#x401;" horiz-adv-x="603" 
d="M340 858q0 36 25.5 59t62.5 23t63 -23t26 -59t-26 -59t-63 -23t-62.5 23t-25.5 59zM97 858q0 36 25.5 59t62.5 23t62.5 -23t25.5 -59t-25.5 -59t-62.5 -23t-62.5 23t-25.5 59zM74 700h465v-139h-302v-125h282v-137h-282v-160h302v-139h-465v700z" />
    <glyph glyph-name="uni0403" unicode="&#x403;" horiz-adv-x="506" 
d="M468 926l-180 -150l-85 43l150 160zM80 700h417v-152h-248v-548h-169v700z" />
    <glyph glyph-name="uni040C" unicode="&#x40c;" horiz-adv-x="700" 
d="M560 926l-180 -150l-86 43l150 160zM74 700h175v-276l238 276h199l-284 -328l299 -372h-205l-247 306v-306h-175v700z" />
    <glyph glyph-name="uni040D" unicode="&#x40d;" horiz-adv-x="793" 
d="M249 908l115 52l150 -160l-85 -42zM237 700v-386l483 421v-735h-163v386l-483 -421v735h163z" />
    <glyph glyph-name="uni040E" unicode="&#x40e;" horiz-adv-x="605" 
d="M140 922h99q0 -26 18 -42.5t47 -16.5t47 16.5t18 42.5h99q0 -61 -42.5 -103.5t-121.5 -42.5t-121.5 42.5t-42.5 103.5zM615 700l-329 -700h-167l95 213l-223 487h183l124 -328l147 328h170z" />
    <glyph glyph-name="uni0410" unicode="&#x410;" horiz-adv-x="735" 
d="M544 0l-66 135h-222l-65 -135h-192l369 744l368 -744h-192zM368 442l-78 -178h155z" />
    <glyph glyph-name="uni0411" unicode="&#x411;" horiz-adv-x="673" 
d="M80 700h500v-139h-328v-125h143q68 0 121.5 -27.5t85 -76t31.5 -113.5q0 -64 -31.5 -113.5t-85 -77.5t-121.5 -28h-315v700zM358 299h-106v-160h106q49 0 75.5 19.5t26.5 60.5t-26.5 60.5t-75.5 19.5z" />
    <glyph glyph-name="uni0412" unicode="&#x412;" horiz-adv-x="664" 
d="M620 197q0 -104 -73.5 -150.5t-198.5 -46.5h-274v700h258q72 0 128 -19.5t88 -59t32 -99.5q0 -51 -27 -88t-74 -58q60 -21 100.5 -64.5t40.5 -114.5zM313 569h-70v-147h70q44 0 68 20t24 55t-24 53.5t-68 18.5zM243 131h86q49 0 82.5 20t33.5 70q0 46 -33.5 64.5
t-82.5 18.5h-86v-173z" />
    <glyph glyph-name="uni0413" unicode="&#x413;" horiz-adv-x="506" 
d="M80 700h417v-152h-248v-548h-169v700z" />
    <glyph glyph-name="uni0414" unicode="&#x414;" horiz-adv-x="882" 
d="M669 0h-460v-110h-169v256h114l285 589l285 -589h114v-256h-169v110zM439 430l-103 -284h206z" />
    <glyph glyph-name="uni0415" unicode="&#x415;" horiz-adv-x="603" 
d="M74 700h465v-139h-302v-125h282v-137h-282v-160h302v-139h-465v700z" />
    <glyph glyph-name="uni0416" unicode="&#x416;" horiz-adv-x="1085" 
d="M212 700l245 -280v280h175v-278l235 278h205l-291 -328l306 -372h-205l-250 315v-315h-175v316l-259 -316h-199l305 372l-290 328h198z" />
    <glyph glyph-name="uni0417" unicode="&#x417;" horiz-adv-x="668" 
d="M354 -16q-106 0 -173.5 33.5t-100 88t-32.5 116.5h167q2 -52 38.5 -77t93.5 -25t91 21.5t34 66.5q0 44 -40 71t-127 27v109q74 0 110.5 25t36.5 62q0 33 -26.5 54.5t-76.5 21.5q-54 0 -84.5 -23.5t-30.5 -59.5h-156q0 63 31 112t91.5 77.5t148.5 28.5q89 0 149 -26
t90.5 -70t30.5 -98q0 -55 -35 -92.5t-94 -59.5q69 -22 109 -65t40 -111q0 -91 -71.5 -149t-213.5 -58z" />
    <glyph glyph-name="uni0418" unicode="&#x418;" horiz-adv-x="793" 
d="M237 700v-386l483 421v-735h-163v386l-483 -421v735h163z" />
    <glyph glyph-name="uni0419" unicode="&#x419;" horiz-adv-x="793" 
d="M257 918h99q0 -26 18 -43t47 -17t47 17t18 43h100q0 -61 -43 -104t-122 -43t-121.5 43t-42.5 104zM237 700v-386l483 421v-735h-163v386l-483 -421v735h163z" />
    <glyph glyph-name="uni041A" unicode="&#x41a;" horiz-adv-x="700" 
d="M74 700h175v-276l238 276h199l-284 -328l299 -372h-205l-247 306v-306h-175v700z" />
    <glyph glyph-name="uni041B" unicode="&#x41b;" horiz-adv-x="770" 
d="M690 700v-700h-172v548h-232v-252q0 -148 -65 -222t-211 -74v143q50 0 78 39t28 104v414h574z" />
    <glyph glyph-name="uni041C" unicode="&#x41c;" horiz-adv-x="891" 
d="M255 356l-43 -356h-178l113 735l299 -426l298 426l114 -735h-179l-42 356l-191 -291z" />
    <glyph glyph-name="uni041D" unicode="&#x41d;" horiz-adv-x="786" 
d="M74 700h169v-255h301v255h169v-700h-169v293h-301v-293h-169v700z" />
    <glyph glyph-name="uni041E" unicode="&#x41e;" horiz-adv-x="821" 
d="M34 350q0 81 28.5 148t80 116t120 75.5t148.5 26.5q81 0 150 -26.5t119.5 -75.5t79 -116t28.5 -148t-27.5 -149t-78.5 -118t-119.5 -77.5t-151.5 -27.5q-82 0 -151 27.5t-120 77.5t-78.5 118t-27.5 149zM213 350q0 -62 24.5 -109.5t69.5 -74.5t104 -27q60 0 104 27
t68.5 74.5t24.5 109.5t-24 109.5t-68 74.5t-105 27q-59 0 -104 -27t-69.5 -74.5t-24.5 -109.5z" />
    <glyph glyph-name="uni041F" unicode="&#x41f;" horiz-adv-x="771" 
d="M519 548h-267v-548h-172v700h611v-700h-172v548z" />
    <glyph glyph-name="uni0420" unicode="&#x420;" horiz-adv-x="623" 
d="M74 700h243q134 0 203 -61t69 -168q0 -106 -69 -167.5t-203 -61.5h-74v-242h-169v700zM317 561h-74v-179h74q51 0 80 23t29 66q0 44 -29 67t-80 23z" />
    <glyph glyph-name="uni0421" unicode="&#x421;" horiz-adv-x="700" 
d="M219 350q0 -64 28.5 -110t76.5 -70.5t104 -24.5q74 0 124.5 28t84.5 65v-184q-42 -32 -92 -51t-127 -19q-112 0 -199 46t-136 128.5t-49 191.5t49 191.5t136 128.5t199 46q77 0 127 -19t92 -51v-184q-34 38 -84.5 65.5t-124.5 27.5q-56 0 -104 -24.5t-76.5 -70
t-28.5 -110.5z" />
    <glyph glyph-name="uni0422" unicode="&#x422;" horiz-adv-x="561" 
d="M4 548v152h554v-152h-192v-548h-170v548h-192z" />
    <glyph glyph-name="uni0423" unicode="&#x423;" horiz-adv-x="618" 
d="M628 700l-330 -700h-173l95 213l-229 487h189l125 -329l146 329h177z" />
    <glyph glyph-name="uni0424" unicode="&#x424;" horiz-adv-x="933" 
d="M380 700h173v-80h14q92 0 166 -32.5t117 -92.5t43 -145q0 -84 -43 -144.5t-117 -93t-166 -32.5h-14v-80h-173v80h-14q-92 0 -166 32.5t-117 93t-43 144.5q0 85 43 145t117 92.5t166 32.5h14v80zM720 350q0 65 -45 92.5t-122 29.5v-244q77 2 122 29.5t45 92.5zM212 350
q0 -65 45.5 -92t122.5 -30v244q-77 -3 -122.5 -30t-45.5 -92z" />
    <glyph glyph-name="uni0425" unicode="&#x425;" horiz-adv-x="686" 
d="M458 700h210l-220 -341l234 -359h-209l-128 232l-132 -232h-209l240 359l-215 341h209l109 -203z" />
    <glyph glyph-name="uni0426" unicode="&#x426;" horiz-adv-x="860" 
d="M246 152h298v548h172v-548h110v-287h-162v135h-590v700h172v-548z" />
    <glyph glyph-name="uni0427" unicode="&#x427;" horiz-adv-x="718" 
d="M244 700v-210q0 -58 32.5 -88.5t82.5 -30.5h103v329h176v-700h-176v221h-153q-76 0 -128.5 33.5t-79.5 90t-27 123.5v232h170z" />
    <glyph glyph-name="uni0428" unicode="&#x428;" horiz-adv-x="1081" 
d="M832 152v548h170v-700h-922v700h169v-548h210v548h163v-548h210z" />
    <glyph glyph-name="uni0429" unicode="&#x429;" horiz-adv-x="1151" 
d="M832 152v548h170v-548h110v-287h-163v135h-869v700h169v-548h210v548h163v-548h210z" />
    <glyph glyph-name="uni042A" unicode="&#x42a;" horiz-adv-x="736" 
d="M190 549h-180v151h349v-242h71q134 0 203 -61t69 -168q0 -106 -69 -167.5t-203 -61.5h-240v549zM430 318h-71v-179h71q51 0 80 23.5t29 66.5q0 44 -29 66.5t-80 22.5z" />
    <glyph glyph-name="uni042B" unicode="&#x42b;" horiz-adv-x="908" 
d="M662 700h173v-700h-173v700zM74 700h169v-242h74q134 0 203 -61t69 -168q0 -106 -69 -167.5t-203 -61.5h-243v700zM317 318h-74v-179h74q51 0 80 23.5t29 66.5q0 44 -29 66.5t-80 22.5z" />
    <glyph glyph-name="uni042C" unicode="&#x42c;" horiz-adv-x="623" 
d="M74 700h169v-242h74q134 0 203 -61t69 -168q0 -106 -69 -167.5t-203 -61.5h-243v700zM317 318h-74v-179h74q51 0 80 23.5t29 66.5q0 44 -29 66.5t-80 22.5z" />
    <glyph glyph-name="uni042D" unicode="&#x42d;" horiz-adv-x="700" 
d="M137 282v136h352q-16 45 -50 77t-77.5 49t-89.5 17q-74 0 -126 -26t-82 -54v165q42 32 92 51t126 19q113 0 199.5 -46t136 -128.5t49.5 -191.5t-49.5 -191.5t-136 -128.5t-199.5 -46q-76 0 -126 19t-92 51v165q30 -28 82 -54t126 -26q46 0 89.5 17t77.5 49t50 77h-352z
" />
    <glyph glyph-name="uni042E" unicode="&#x42e;" horiz-adv-x="1142" 
d="M74 700h169v-255h123q21 82 73 143t127.5 94.5t165.5 33.5q81 0 150 -26.5t119.5 -75.5t79 -116t28.5 -148t-27.5 -149t-78.5 -118t-119.5 -77.5t-151.5 -27.5q-100 0 -180 40t-130.5 111t-62.5 164h-116v-293h-169v700zM534 350q0 -62 24.5 -109.5t69.5 -74.5t104 -27
q60 0 104 27t68.5 74.5t24.5 109.5t-24 109.5t-68 74.5t-105 27q-59 0 -104 -27t-69.5 -74.5t-24.5 -109.5z" />
    <glyph glyph-name="uni042F" unicode="&#x42f;" horiz-adv-x="647" 
d="M574 700v-700h-170v242h-52l-150 -242h-198l181 264q-69 26 -104 80.5t-35 126.5q0 101 69 165t203 64h256zM331 374h73v182h-73q-51 0 -80.5 -23.5t-29.5 -67.5q0 -43 29.5 -67t80.5 -24z" />
    <glyph glyph-name="uni0430" unicode="&#x430;" horiz-adv-x="544" 
d="M117 318l-51 102q40 19 94 36t116 17t110.5 -17.5t76.5 -50.5t28 -81v-324h-146v65q-20 -36 -61 -55.5t-93 -19.5q-73 0 -120 36.5t-47 104.5t54 108t145 40q35 0 67 -8t55 -19v42q0 29 -21.5 46.5t-59.5 17.5q-49 0 -89.5 -15t-57.5 -25zM177 138q0 -25 19 -37t46 -12
q40 0 70.5 19.5t32.5 71.5q-36 17 -87 17q-39 0 -60 -16t-21 -43z" />
    <glyph glyph-name="uni0431" unicode="&#x431;" horiz-adv-x="608" 
d="M35 290q0 94 16.5 165.5t59.5 123t121 83.5q68 28 104.5 55t43.5 63h146q-7 -67 -63.5 -121.5t-138.5 -86.5q-79 -30 -113 -79t-41 -110q25 42 63.5 64.5t89.5 22.5q74 0 130.5 -31t88.5 -85t32 -124q0 -69 -32.5 -123.5t-92 -85.5t-139.5 -31t-142 33.5t-97.5 100.5
t-35.5 166zM202 230q0 -53 32 -84t76 -31t76 31t32 84t-31.5 84.5t-75.5 31.5q-41 0 -75 -30t-34 -86z" />
    <glyph glyph-name="uni0432" unicode="&#x432;" horiz-adv-x="524" 
d="M75 460h242q43 0 78.5 -12.5t57.5 -40t22 -72.5q0 -39 -21 -64t-55 -38q43 -9 69.5 -34t26.5 -74q0 -52 -34.5 -88.5t-113.5 -36.5h-272v460zM286 365h-65v-85h65q22 0 34 12t12 30t-12 30.5t-34 12.5zM296 186h-75v-91h75q31 0 43.5 14t12.5 32t-12.5 31.5t-43.5 13.5z
" />
    <glyph glyph-name="uni0433" unicode="&#x433;" horiz-adv-x="358" 
d="M61 460h295v-125h-146v-335h-149v460z" />
    <glyph glyph-name="uni0434" unicode="&#x434;" horiz-adv-x="705" 
d="M518 0h-330v-90h-148v209h88l222 376l222 -376h88v-209h-142v90zM350 278l-71 -159h142z" />
    <glyph glyph-name="uni0435" unicode="&#x435;" 
d="M541 126q-34 -61 -91 -98.5t-156 -37.5q-84 0 -142.5 31t-89 85.5t-30.5 123.5q0 13 1 25t3 24q14 85 78.5 138t176.5 53q121 0 184.5 -62t63.5 -171q0 -6 0.5 -16.5t-1.5 -22.5h-351q7 -53 36 -76t68 -23q41 0 69.5 16t44.5 44zM288 369q-40 0 -66 -22.5t-33 -64.5h188
q-5 41 -26.5 64t-62.5 23z" />
    <glyph glyph-name="uni0436" unicode="&#x436;" horiz-adv-x="881" 
d="M195 460l174 -165v165h143v-165l174 165h175l-197 -194l217 -266h-175l-194 238v-238h-143v238l-194 -238h-175l218 266l-198 194h175z" />
    <glyph glyph-name="uni0437" unicode="&#x437;" horiz-adv-x="536" 
d="M279 -10q-99 0 -155 46t-64 122h144q15 -60 74 -60q32 0 52 13.5t20 38.5q0 52 -78 52v73q32 0 46.5 12.5t14.5 31.5t-14 30t-37 11q-26 0 -41.5 -15t-16.5 -38h-138q0 73 53.5 118t141.5 45q55 0 98 -17t68 -47t25 -68q0 -31 -18 -55t-54 -38q92 -31 92 -111
q0 -44 -28 -76.5t-76 -50t-109 -17.5z" />
    <glyph glyph-name="uni0438" unicode="&#x438;" horiz-adv-x="591" 
d="M207 460v-219l324 254v-495h-146v219l-324 -254v495h146z" />
    <glyph glyph-name="uni0439" unicode="&#x439;" horiz-adv-x="591" 
d="M139 695h99q0 -26 18 -42.5t47 -16.5t47 16.5t18 42.5h99q0 -61 -42.5 -103.5t-121.5 -42.5t-121.5 42.5t-42.5 103.5zM207 460v-219l324 254v-495h-146v219l-324 -254v495h146z" />
    <glyph glyph-name="uni043A" unicode="&#x43a;" horiz-adv-x="577" 
d="M58 460h145v-162l168 162h180l-197 -190l217 -270h-178l-190 234v-234h-145v460z" />
    <glyph glyph-name="uni043B" unicode="&#x43b;" horiz-adv-x="623" 
d="M544 460v-460h-146v322h-169v-162q0 -54 -20 -89.5t-68 -53t-131 -17.5v136q30 0 51.5 11t21.5 51v262h461z" />
    <glyph glyph-name="uni043C" unicode="&#x43c;" horiz-adv-x="657" 
d="M5 0l139 495l183 -312l186 312l139 -495h-152l-38 191l-135 -222l-132 220l-37 -189h-153z" />
    <glyph glyph-name="uni043D" unicode="&#x43d;" horiz-adv-x="615" 
d="M59 460h146v-161h205v161h146v-460h-146v186h-205v-186h-146v460z" />
    <glyph glyph-name="uni043E" unicode="&#x43e;" horiz-adv-x="589" 
d="M32 230q0 73 34.5 127t94 84t134.5 30q76 0 135 -30t93.5 -84t34.5 -127q0 -72 -34.5 -126t-93.5 -84t-135 -30q-75 0 -134.5 30t-94 84t-34.5 126zM188 230q0 -53 31.5 -84t75.5 -31t75.5 31t31.5 84t-31.5 84.5t-75.5 31.5t-75.5 -31.5t-31.5 -84.5z" />
    <glyph glyph-name="uni043F" unicode="&#x43f;" 
d="M516 460v-460h-146v329h-165v-329h-146v460h457z" />
    <glyph glyph-name="uni0440" unicode="&#x440;" horiz-adv-x="616" 
d="M209 -220h-151v680h151v-74q25 43 64.5 66.5t92.5 23.5q56 0 106 -27.5t81.5 -82.5t31.5 -136t-31.5 -135.5t-81.5 -82.5t-106 -28q-53 0 -92.5 23.5t-64.5 66.5v-294zM426 230q0 54 -32.5 83t-77.5 29q-25 0 -50 -12.5t-41 -37t-16 -62.5q0 -37 16 -62t41 -37.5
t50 -12.5q45 0 77.5 29t32.5 83z" />
    <glyph glyph-name="uni0441" unicode="&#x441;" horiz-adv-x="493" 
d="M186 230q0 -55 36 -87t87 -32q41 0 78 17.5t57 50.5v-147q-24 -19 -60 -30.5t-88 -11.5q-77 0 -137 30t-94.5 84t-34.5 126q0 73 34.5 126.5t94.5 83.5t137 30q52 0 88 -11.5t60 -28.5v-148q-20 33 -59 50t-76 17q-34 0 -62 -15.5t-44.5 -42.5t-16.5 -61z" />
    <glyph glyph-name="uni0442" unicode="&#x442;" horiz-adv-x="333" 
d="M5 460h323v-125h-89v-335h-145v335h-89v125z" />
    <glyph glyph-name="uni0443" unicode="&#x443;" horiz-adv-x="521" 
d="M531 460l-300 -680h-153l112 257l-199 423h167l109 -271l108 271h156z" />
    <glyph glyph-name="uni0444" unicode="&#x444;" horiz-adv-x="667" 
d="M32 230q0 94 60.5 157t169.5 79v94h143v-94q109 -16 169.5 -79t60.5 -157t-60.5 -156.5t-169.5 -78.5v-95h-143v95q-109 16 -169.5 78.5t-60.5 156.5zM498 230q0 41 -22 69t-71 40v-217q49 11 71 39t22 69zM169 230q0 -41 22.5 -68.5t70.5 -39.5v217q-48 -12 -70.5 -40
t-22.5 -69z" />
    <glyph glyph-name="uni0445" unicode="&#x445;" horiz-adv-x="532" 
d="M354 460h168l-176 -224l186 -236h-168l-95 133l-95 -133h-174l189 236l-179 224h174l85 -121z" />
    <glyph glyph-name="uni0446" unicode="&#x446;" horiz-adv-x="621" 
d="M522 125h80v-227h-142v102h-401v460h152v-335h159v335h152v-335z" />
    <glyph glyph-name="uni0447" unicode="&#x447;" horiz-adv-x="547" 
d="M202 460v-144q0 -41 17 -58.5t55 -17.5h56v220h152v-460h-152v115h-100q-69 0 -108.5 25t-55.5 73t-16 115v132h152z" />
    <glyph glyph-name="uni0448" unicode="&#x448;" horiz-adv-x="836" 
d="M491 125h141v335h146v-460h-719v460h146v-335h141v335h145v-335z" />
    <glyph glyph-name="uni0449" unicode="&#x449;" horiz-adv-x="876" 
d="M491 125h140v335h146v-335h80v-227h-142v102h-656v460h146v-335h141v335h145v-335z" />
    <glyph glyph-name="uni044A" unicode="&#x44a;" horiz-adv-x="612" 
d="M145 335h-140v125h279v-155h114q71 0 119.5 -34.5t48.5 -108.5q0 -49 -22 -85.5t-60 -56.5t-86 -20h-253v335zM371 207h-87v-90h87q25 0 38.5 12.5t13.5 32.5t-13.5 32.5t-38.5 12.5z" />
    <glyph glyph-name="uni044B" unicode="&#x44b;" horiz-adv-x="763" 
d="M552 460h152v-460h-152v460zM59 460h152v-155h110q71 0 119.5 -34.5t48.5 -108.5q0 -49 -22 -85.5t-60 -56.5t-86 -20h-262v460zM294 207h-83v-90h83q25 0 39 12.5t14 32.5t-14 32.5t-39 12.5z" />
    <glyph glyph-name="uni044C" unicode="&#x44c;" horiz-adv-x="545" 
d="M66 460h152v-155h110q71 0 119.5 -34.5t48.5 -108.5q0 -49 -22 -85.5t-60 -56.5t-86 -20h-262v460zM301 207h-83v-90h83q25 0 38.5 12.5t13.5 32.5t-13.5 32.5t-38.5 12.5z" />
    <glyph glyph-name="uni044D" unicode="&#x44d;" horiz-adv-x="493" 
d="M112 280h189q-13 42 -44.5 65t-71.5 23q-37 0 -76 -17.5t-59 -50.5v130q24 17 60 28.5t88 11.5q77 0 137 -30t94.5 -83.5t34.5 -126.5q0 -72 -34.5 -126t-94.5 -84t-137 -30q-52 0 -88 11.5t-60 30.5v128q20 -33 57 -50.5t78 -17.5t73 22t44 66h-190v100z" />
    <glyph glyph-name="uni044E" unicode="&#x44e;" horiz-adv-x="821" 
d="M59 460h146v-161h67q23 79 91.5 125.5t162.5 46.5q76 0 135 -30t93.5 -84t34.5 -127q0 -72 -34.5 -126t-93.5 -84t-135 -30q-68 0 -122.5 24t-90.5 68t-46 104h-62v-186h-146v460zM419 230q0 -53 31.5 -84t75.5 -31t75.5 31t31.5 84t-31.5 84.5t-75.5 31.5t-75.5 -31.5
t-31.5 -84.5z" />
    <glyph glyph-name="uni044F" unicode="&#x44f;" horiz-adv-x="545" 
d="M197 0h-157l123 184q-39 17 -63.5 49.5t-24.5 82.5q0 53 27 84.5t70 45.5t90 14h243v-460h-152v165h-56zM284 266h69v74h-69q-29 0 -44.5 -8.5t-15.5 -28.5t15.5 -28.5t44.5 -8.5z" />
    <glyph glyph-name="uni0450" unicode="&#x450;" 
d="M122 681l116 52l150 -160l-86 -42zM541 126q-34 -61 -91 -98.5t-156 -37.5q-84 0 -142.5 31t-89 85.5t-30.5 123.5q0 13 1 25t3 24q14 85 78.5 138t176.5 53q121 0 184.5 -62t63.5 -171q0 -6 0.5 -16.5t-1.5 -22.5h-351q7 -53 36 -76t68 -23q41 0 69.5 16t44.5 44z
M288 369q-40 0 -66 -22.5t-33 -64.5h188q-5 41 -26.5 64t-62.5 23z" />
    <glyph glyph-name="uni0451" unicode="&#x451;" 
d="M325 612q0 36 25.5 59t62.5 23t62.5 -23t25.5 -59t-25.5 -58.5t-62.5 -22.5t-62.5 22.5t-25.5 58.5zM81 612q0 36 25.5 59t62.5 23t62.5 -23t25.5 -59t-25.5 -58.5t-62.5 -22.5t-62.5 22.5t-25.5 58.5zM541 126q-34 -61 -91 -98.5t-156 -37.5q-84 0 -142.5 31t-89 85.5
t-30.5 123.5q0 13 1 25t3 24q14 85 78.5 138t176.5 53q121 0 184.5 -62t63.5 -171q0 -6 0.5 -16.5t-1.5 -22.5h-351q7 -53 36 -76t68 -23q41 0 69.5 16t44.5 44zM288 369q-40 0 -66 -22.5t-33 -64.5h188q-5 41 -26.5 64t-62.5 23z" />
    <glyph glyph-name="uni0453" unicode="&#x453;" horiz-adv-x="358" 
d="M389 681l-180 -150l-86 42l150 160zM61 460h295v-125h-146v-335h-149v460z" />
    <glyph glyph-name="uni045C" unicode="&#x45c;" horiz-adv-x="440" 
d="M484 681l-180 -150l-85 42l150 160zM58 460h145v-162l168 162h180l-197 -190l217 -270h-178l-190 234v-234h-145v460z" />
    <glyph glyph-name="uni045D" unicode="&#x45d;" horiz-adv-x="591" 
d="M131 705l115 53l150 -160l-85 -43zM207 460v-219l324 254v-495h-146v219l-324 -254v495h146z" />
    <glyph glyph-name="uni045E" unicode="&#x45e;" horiz-adv-x="440" 
d="M96 677h100q0 -26 18 -42.5t47 -16.5t47 16.5t18 42.5h99q0 -61 -42.5 -103.5t-121.5 -42.5t-122 42.5t-43 103.5zM531 460l-300 -680h-153l112 257l-199 423h167l109 -271l108 271h156z" />
    <glyph glyph-name="Wgrave" unicode="&#x1e80;" horiz-adv-x="1065" 
d="M532 795l-180 150l116 52l150 -160zM724 301l136 399h201l-303 -741l-226 421l-225 -421l-303 741h201l137 -399l190 434z" />
    <glyph glyph-name="wgrave" unicode="&#x1e81;" horiz-adv-x="761" 
d="M379 555l-180 150l116 52l150 -160zM-8 460h159l96 -235l132 270l135 -271l96 236h159l-238 -489l-152 273l-149 -273z" />
    <glyph glyph-name="Wacute" unicode="&#x1e82;" horiz-adv-x="1065" 
d="M533 795l-86 42l150 160l116 -52zM724 301l136 399h201l-303 -741l-226 421l-225 -421l-303 741h201l137 -399l190 434z" />
    <glyph glyph-name="wacute" unicode="&#x1e83;" horiz-adv-x="761" 
d="M379 555l-86 42l150 160l116 -52zM-8 460h159l96 -235l132 270l135 -271l96 236h159l-238 -489l-152 273l-149 -273z" />
    <glyph glyph-name="Wdieresis" unicode="&#x1e84;" horiz-adv-x="1065" 
d="M566 877q0 36 26 59t63 23t62.5 -23t25.5 -59t-25.5 -59t-62.5 -23t-63 23t-26 59zM323 877q0 36 25.5 59t62.5 23t62.5 -23t25.5 -59t-25.5 -59t-62.5 -23t-62.5 23t-25.5 59zM724 301l136 399h201l-303 -741l-226 421l-225 -421l-303 741h201l137 -399l190 434z" />
    <glyph glyph-name="wdieresis" unicode="&#x1e85;" horiz-adv-x="761" 
d="M412 637q0 36 26 59t63 23t62.5 -23t25.5 -59t-25.5 -59t-62.5 -23t-63 23t-26 59zM169 637q0 36 25.5 59t62.5 23t62.5 -23t25.5 -59t-25.5 -59t-62.5 -23t-62.5 23t-25.5 59zM-8 460h159l96 -235l132 270l135 -271l96 236h159l-238 -489l-152 273l-149 -273z" />
    <glyph glyph-name="uni1E86" unicode="&#x1e86;" horiz-adv-x="1065" 
d="M444 877q0 36 25.5 59t62.5 23t62.5 -23t25.5 -59t-25.5 -59t-62.5 -23t-62.5 23t-25.5 59zM724 301l136 399h201l-303 -741l-226 421l-225 -421l-303 741h201l137 -399l190 434z" />
    <glyph glyph-name="uni1E87" unicode="&#x1e87;" horiz-adv-x="761" 
d="M291 637q0 36 25.5 59t62.5 23t62.5 -23t25.5 -59t-25.5 -59t-62.5 -23t-62.5 23t-25.5 59zM-8 460h159l96 -235l132 270l135 -271l96 236h159l-238 -489l-152 273l-149 -273z" />
    <glyph glyph-name="uni1E88" unicode="&#x1e88;" horiz-adv-x="1065" 
d="M444 -183q0 36 25.5 59t62.5 23t62.5 -23t25.5 -59t-25.5 -59t-62.5 -23t-62.5 23t-25.5 59zM724 301l136 399h201l-303 -741l-226 421l-225 -421l-303 741h201l137 -399l190 434z" />
    <glyph glyph-name="uni1E89" unicode="&#x1e89;" horiz-adv-x="761" 
d="M293 -171q0 36 25.5 59t62.5 23t62.5 -23t25.5 -59t-25.5 -59t-62.5 -23t-62.5 23t-25.5 59zM-8 460h159l96 -235l132 270l135 -271l96 236h159l-238 -489l-152 273l-149 -273z" />
    <glyph glyph-name="uni1E9E" unicode="&#x1e9e;" horiz-adv-x="814" 
d="M541 -12q-64 0 -125 12.5t-111 33.5l39 137q43 -19 81.5 -30.5t72.5 -11.5q40 0 68 14.5t28 47.5q0 26 -14.5 42t-36.5 27.5t-44 23.5t-36.5 29t-14.5 45q0 27 13 44t29.5 30.5t29.5 27.5t13 35q0 27 -28 47t-78 20q-85 0 -129 -55t-44 -157l1 -352h-175v368
q0 107 36 185.5t113.5 121.5t200.5 43q95 0 159 -24t96 -65t32 -91q0 -37 -12.5 -64.5t-28.5 -47.5t-28.5 -35t-12.5 -29t14 -24.5t34.5 -21.5t41 -28t34.5 -43.5t14 -68.5q0 -86 -61.5 -136t-170.5 -50z" />
    <glyph glyph-name="Ygrave" unicode="&#x1ef2;" horiz-adv-x="660" 
d="M330 777l-180 150l116 52l150 -160zM467 700h195l-245 -415v-285h-173v284l-245 416h195l136 -263z" />
    <glyph glyph-name="ygrave" unicode="&#x1ef3;" horiz-adv-x="521" 
d="M261 531l-180 150l116 52l150 -160zM531 460l-300 -680h-153l112 257l-199 423h167l109 -271l108 271h156z" />
    <glyph glyph-name="uni2010" unicode="&#x2010;" horiz-adv-x="222" 
d="M5 172v131h213v-131h-213z" />
    <glyph glyph-name="figuredash" unicode="&#x2012;" horiz-adv-x="627" 
d="M70 172v131h478v-131h-478z" />
    <glyph glyph-name="endash" unicode="&#x2013;" horiz-adv-x="783" 
d="M70 172v131h638v-131h-638z" />
    <glyph glyph-name="emdash" unicode="&#x2014;" horiz-adv-x="940" 
d="M70 172v131h797v-131h-797z" />
    <glyph glyph-name="quoteleft" unicode="&#x2018;" horiz-adv-x="331" 
d="M228 445h-158l103 255h108z" />
    <glyph glyph-name="quoteright" unicode="&#x2019;" horiz-adv-x="331" 
d="M104 700h157l-103 -255h-108z" />
    <glyph glyph-name="quotesinglbase" unicode="&#x201a;" horiz-adv-x="331" 
d="M114 80h157l-103 -255h-108z" />
    <glyph glyph-name="quotedblleft" unicode="&#x201c;" horiz-adv-x="562" 
d="M228 445h-158l103 255h108zM459 445h-158l103 255h108z" />
    <glyph glyph-name="quotedblright" unicode="&#x201d;" horiz-adv-x="562" 
d="M104 700h157l-103 -255h-108zM335 700h157l-103 -255h-108z" />
    <glyph glyph-name="quotedblbase" unicode="&#x201e;" horiz-adv-x="562" 
d="M104 80h157l-103 -255h-108zM335 80h157l-103 -255h-108z" />
    <glyph glyph-name="dagger" unicode="&#x2020;" horiz-adv-x="632" 
d="M90 540h155v160h143v-160h154v-125h-154v-565h-143v565h-155v125z" />
    <glyph glyph-name="daggerdbl" unicode="&#x2021;" horiz-adv-x="632" 
d="M90 158h155v257h-155v125h155v160h143v-160h154v-125h-154v-257h154v-126h-154v-182h-143v182h-155v126z" />
    <glyph glyph-name="bullet" unicode="&#x2022;" horiz-adv-x="300" 
d="M67 443q0 38 26.5 65.5t67.5 27.5t68 -27.5t27 -65.5t-27 -65t-68 -27t-67.5 27t-26.5 65z" />
    <glyph glyph-name="ellipsis" unicode="&#x2026;" horiz-adv-x="925" 
d="M67 68q0 38 26.5 65.5t67.5 27.5t68 -27.5t27 -65.5t-27 -65t-68 -27t-67.5 27t-26.5 65zM367 68q0 38 26.5 65.5t67.5 27.5t68 -27.5t27 -65.5t-27 -65t-68 -27t-67.5 27t-26.5 65zM667 68q0 38 26.5 65.5t67.5 27.5t68 -27.5t27 -65.5t-27 -65t-68 -27t-67.5 27
t-26.5 65z" />
    <glyph glyph-name="perthousand" unicode="&#x2030;" horiz-adv-x="1374" 
d="M22 534q0 51 25 93t68 67t97 25t97 -25t67.5 -67t24.5 -93t-24.5 -93t-67.5 -67t-97 -25t-97 25t-68 67t-25 93zM650 700h157l-538 -700h-156zM147 534q0 -27 18.5 -46.5t46.5 -19.5q29 0 46.5 19.5t17.5 46.5t-17.5 47t-46.5 20q-28 0 -46.5 -20t-18.5 -47zM974 166
q0 51 25 93t67.5 67t96.5 25t97 -25t67.5 -67t24.5 -93t-24.5 -93t-67.5 -67t-97 -25t-96.5 25t-67.5 67t-25 93zM519 166q0 51 25 93t67.5 67t96.5 25t97 -25t67.5 -67t24.5 -93t-24.5 -93t-67.5 -67t-97 -25t-96.5 25t-67.5 67t-25 93zM1098 166q0 -27 18.5 -46.5
t46.5 -19.5q29 0 47 19.5t18 46.5t-18 46.5t-47 19.5q-28 0 -46.5 -19.5t-18.5 -46.5zM644 166q0 -27 18 -46.5t46 -19.5q29 0 46.5 19.5t17.5 46.5t-17.5 46.5t-46.5 19.5q-28 0 -46 -19.5t-18 -46.5z" />
    <glyph glyph-name="uni2031" unicode="&#x2031;" horiz-adv-x="1829" 
d="M22 534q0 51 25 93t68 67t97 25t97 -25t67.5 -67t24.5 -93t-24.5 -93t-67.5 -67t-97 -25t-97 25t-68 67t-25 93zM650 700h157l-538 -700h-156zM147 534q0 -27 18.5 -46.5t46.5 -19.5q29 0 46.5 19.5t17.5 46.5t-17.5 47t-46.5 20q-28 0 -46.5 -20t-18.5 -47zM1429 166
q0 51 25 93t67.5 67t96.5 25t97 -25t67.5 -67t24.5 -93t-24.5 -93t-67.5 -67t-97 -25t-96.5 25t-67.5 67t-25 93zM974 166q0 51 25 93t67.5 67t96.5 25t97 -25t67.5 -67t24.5 -93t-24.5 -93t-67.5 -67t-97 -25t-96.5 25t-67.5 67t-25 93zM519 166q0 51 25 93t67.5 67
t96.5 25t97 -25t67.5 -67t24.5 -93t-24.5 -93t-67.5 -67t-97 -25t-96.5 25t-67.5 67t-25 93zM1554 166q0 -27 18 -46.5t46 -19.5q29 0 46.5 19.5t17.5 46.5t-17.5 46.5t-46.5 19.5q-28 0 -46 -19.5t-18 -46.5zM1098 166q0 -27 18.5 -46.5t46.5 -19.5q29 0 47 19.5t18 46.5
t-18 46.5t-47 19.5q-28 0 -46.5 -19.5t-18.5 -46.5zM644 166q0 -27 18 -46.5t46 -19.5q29 0 46.5 19.5t17.5 46.5t-17.5 46.5t-46.5 19.5q-28 0 -46 -19.5t-18 -46.5z" />
    <glyph glyph-name="guilsinglleft" unicode="&#x2039;" horiz-adv-x="350" 
d="M149 259l150 -194l-94 -64l-177 254l177 254l94 -64z" />
    <glyph glyph-name="guilsinglright" unicode="&#x203a;" horiz-adv-x="350" 
d="M201 251l-150 194l94 64l177 -254l-177 -254l-94 64z" />
    <glyph glyph-name="uni203D" unicode="&#x203d;" horiz-adv-x="627" 
d="M216 504h145l-13 -141q37 17 61.5 48t24.5 70q0 56 -36.5 83t-97.5 27q-46 0 -86.5 -20t-63.5 -67l-102 85q35 53 104.5 91t163.5 38q66 0 124.5 -25.5t95.5 -74.5t37 -118q0 -49 -21 -87t-55 -65t-75 -43.5t-82 -22.5l-7 -81h-90zM198 62q0 37 27.5 61.5t68.5 24.5
t68 -24.5t27 -61.5t-27 -61.5t-68 -24.5t-68.5 24.5t-27.5 61.5z" />
    <glyph glyph-name="fraction" unicode="&#x2044;" horiz-adv-x="730" 
d="M580 700h121l-520 -700h-121z" />
    <glyph glyph-name="uni2070" unicode="&#x2070;" horiz-adv-x="390" 
d="M21 490q0 102 48.5 160t125.5 58q80 0 127.5 -58t47.5 -160t-47.5 -160t-127.5 -58q-77 0 -125.5 58t-48.5 160zM118 490q0 -59 21.5 -94.5t55.5 -35.5q35 0 56 35.5t21 94.5t-21 94.5t-56 35.5q-34 0 -55.5 -35.5t-21.5 -94.5z" />
    <glyph glyph-name="uni2074" unicode="&#x2074;" horiz-adv-x="426" 
d="M401 355h-66v-75h-105v75h-214l244 345h75v-259h66v-86zM241 553l-92 -125h92v125z" />
    <glyph glyph-name="uni2075" unicode="&#x2075;" horiz-adv-x="387" 
d="M361 412q0 -49 -25.5 -80.5t-64 -46.5t-79.5 -15q-58 0 -98.5 16t-69.5 38l39 85q26 -21 54.5 -33.5t51.5 -12.5q38 0 59.5 15t21.5 46t-25 44.5t-56 13.5q-24 0 -55 -5.5t-63 -21.5l59 243h242v-88h-168l-26 -76q18 9 37 12.5t39 3.5q33 0 62 -16.5t47 -47t18 -74.5z
" />
    <glyph glyph-name="uni2076" unicode="&#x2076;" horiz-adv-x="383" 
d="M192 696h129l-124 -139q8 3 17 4t20 1q31 0 61 -16.5t49.5 -47.5t19.5 -73q0 -51 -23 -86t-62 -53t-86 -18t-86 18t-62 53t-23 86q0 34 14.5 63t34.5 54zM122 425q0 -32 20.5 -51t50.5 -19t50.5 19t20.5 51t-20.5 52t-50.5 20t-50.5 -20t-20.5 -52z" />
    <glyph glyph-name="uni2077" unicode="&#x2077;" horiz-adv-x="379" 
d="M23 605v95h343l-203 -420h-109l163 325h-194z" />
    <glyph glyph-name="uni2078" unicode="&#x2078;" horiz-adv-x="362" 
d="M22 394q0 42 23.5 68.5t56.5 40.5q-28 13 -46 37t-18 59t19.5 60t52 38t70.5 13q39 0 71 -13t51.5 -38t19.5 -60t-18.5 -59t-45.5 -37q32 -14 55.5 -40.5t23.5 -68.5q0 -38 -22 -66t-58 -43t-77 -15t-77 15t-58.5 43t-22.5 66zM133 589q0 -22 13.5 -35t33.5 -13t33 13
t13 35t-12.5 35t-33.5 13t-34 -13t-13 -35zM124 409q0 -28 16.5 -42t39.5 -14t39.5 14t16.5 42q0 23 -16.5 39t-39.5 16t-39.5 -16t-16.5 -39z" />
    <glyph glyph-name="uni2079" unicode="&#x2079;" horiz-adv-x="380" 
d="M196 284h-130l125 139q-8 -3 -17.5 -4t-20.5 -1q-31 0 -61 16.5t-49.5 47.5t-19.5 73q0 52 23 86.5t62 52.5t86 18t86 -18t62.5 -52.5t23.5 -86.5q0 -34 -15 -62.5t-35 -54.5zM265 555q0 32 -20.5 51t-50.5 19t-50 -19t-20 -51t20 -52t50 -20t50.5 20t20.5 52z" />
    <glyph glyph-name="uni2080" unicode="&#x2080;" horiz-adv-x="390" 
d="M21 210q0 102 48.5 160t125.5 58q80 0 127.5 -58t47.5 -160t-47.5 -160t-127.5 -58q-77 0 -125.5 58t-48.5 160zM118 210q0 -59 21.5 -94.5t55.5 -35.5q35 0 56 35.5t21 94.5t-21 94.5t-56 35.5q-34 0 -55.5 -35.5t-21.5 -94.5z" />
    <glyph glyph-name="uni2081" unicode="&#x2081;" horiz-adv-x="360" 
d="M90 299v89l202 41v-428h-98v324z" />
    <glyph glyph-name="uni2082" unicode="&#x2082;" horiz-adv-x="411" 
d="M28 2l188 194q26 27 40 48t14 46q0 20 -13.5 37t-42.5 17t-47.5 -21.5t-18.5 -55.5h-100q0 45 19.5 82t57 59.5t92.5 22.5q52 0 87 -20.5t52.5 -51.5t17.5 -64q0 -34 -16.5 -62t-43.5 -51l-98 -87h168v-93h-356z" />
    <glyph glyph-name="uni2083" unicode="&#x2083;" horiz-adv-x="372" 
d="M184 -10q-51 0 -87.5 20.5t-55.5 53.5t-19 70h101q0 -31 19.5 -46.5t45.5 -15.5t43 12t17 40q0 26 -21.5 43t-68.5 17v65q35 0 56.5 17t21.5 40q0 19 -12 30t-36 11t-39 -13.5t-15 -36.5h-94q0 56 41 93.5t108 37.5q71 0 109.5 -33.5t38.5 -82.5q0 -32 -20 -55t-53 -36
q39 -14 62 -39.5t23 -66.5q0 -55 -44 -90t-121 -35z" />
    <glyph glyph-name="uni2084" unicode="&#x2084;" horiz-adv-x="431" 
d="M400 75h-66v-75h-105v75h-215l245 345h75v-259h66v-86zM240 273l-92 -125h92v125z" />
    <glyph glyph-name="uni2085" unicode="&#x2085;" horiz-adv-x="396" 
d="M187 330l-26 -76q18 9 37 12.5t39 3.5q33 0 62 -16.5t47 -47t18 -74.5q0 -49 -25.5 -80.5t-64 -46.5t-79.5 -15q-58 0 -98.5 16t-69.5 38l39 85q26 -21 54.5 -33.5t51.5 -12.5q38 0 60 15t22 46t-25.5 44.5t-56.5 13.5q-24 0 -55 -5.5t-63 -21.5l59 243h243v-88h-169z
" />
    <glyph glyph-name="uni2086" unicode="&#x2086;" horiz-adv-x="394" 
d="M196 416h128l-124 -139q8 3 17.5 4t20.5 1q31 0 61 -16.5t49.5 -47.5t19.5 -73q0 -51 -23 -86t-62 -53t-86 -18t-86 18t-62 53t-23 86q0 34 14 63t34 54zM126 145q0 -32 20.5 -51t50.5 -19t50 19t20 51t-20 52t-50 20t-50.5 -20t-20.5 -52z" />
    <glyph glyph-name="uni2087" unicode="&#x2087;" horiz-adv-x="384" 
d="M27 325v95h343l-203 -420h-109l162 325h-193z" />
    <glyph glyph-name="uni2088" unicode="&#x2088;" horiz-adv-x="368" 
d="M27 114q0 42 23.5 68.5t55.5 40.5q-27 13 -45.5 37t-18.5 59t19.5 60t52 38t70.5 13q39 0 71 -13t51.5 -38t19.5 -60t-18.5 -59t-45.5 -37q32 -14 55.5 -40.5t23.5 -68.5q0 -38 -22 -66t-58 -43t-77 -15t-77 15t-58 43t-22 66zM138 309q0 -22 13 -35t33 -13t33 13t13 35
t-12.5 35t-33.5 13t-33.5 -13t-12.5 -35zM128 129q0 -28 16.5 -42t39.5 -14t39.5 14t16.5 42q0 23 -16.5 39t-39.5 16t-39.5 -16t-16.5 -39z" />
    <glyph glyph-name="uni2089" unicode="&#x2089;" horiz-adv-x="398" 
d="M197 4h-129l124 138q-8 -2 -17 -3t-20 -1q-31 0 -61 17t-49.5 47.5t-19.5 72.5q0 52 23 86.5t62 52.5t86 18t86 -18t62 -52.5t23 -86.5q0 -34 -14.5 -62.5t-34.5 -54.5zM266 275q0 32 -20 51t-50 19t-50.5 -19t-20.5 -51t20.5 -52t50.5 -20t50 20t20 52z" />
    <glyph glyph-name="Euro" unicode="&#x20ac;" horiz-adv-x="655" 
d="M40 250v84h61v16q0 16 1 31h-48v85h60q18 75 59.5 132t102 89.5t138.5 32.5q41 0 78.5 -10.5t71.5 -30.5v-161q-64 62 -150 62q-51 0 -89.5 -29t-58.5 -85h279v-85h-295q-1 -15 -1 -31v-16h277v-84h-265q18 -64 58.5 -97t94.5 -33q86 0 150 62v-160q-34 -19 -71.5 -30
t-78.5 -11q-80 0 -142.5 34.5t-103.5 95t-57 139.5h-71z" />
    <glyph glyph-name="trademark" unicode="&#x2122;" horiz-adv-x="746" 
d="M664 718l56 -368h-89l-21 174l-96 -142l-95 141l-21 -173h-89l56 368l149 -214zM30 624v76h277v-76h-96v-274h-85v274h-96z" />
    <glyph glyph-name="uni2150" unicode="&#x2150;" horiz-adv-x="942" 
d="M24 572v89l202 41v-428h-98v324zM606 700h121l-520 -700h-121zM577 325v95h343l-203 -420h-109l163 325h-194z" />
    <glyph glyph-name="uni2151" unicode="&#x2151;" horiz-adv-x="884" 
d="M24 572v89l202 41v-428h-98v324zM599 700h121l-520 -700h-121zM692 4h-130l125 139q-8 -3 -17.5 -4t-20.5 -1q-31 0 -61 17t-49.5 47.5t-19.5 72.5q0 52 23 86.5t62 52.5t86 18t86 -18t62.5 -52.5t23.5 -86.5q0 -34 -15 -62.5t-35 -54.5zM761 275q0 32 -20.5 51t-50.5 19
t-50 -19t-20 -51t20 -52t50 -20t50.5 20t20.5 52z" />
    <glyph glyph-name="uni2152" unicode="&#x2152;" horiz-adv-x="1211" 
d="M24 572v89l202 41v-428h-98v324zM599 700h121l-520 -700h-121zM550 299v89l203 41v-428h-98v324zM829 210q0 102 48.5 160t125.5 58q80 0 127.5 -58t47.5 -160t-47.5 -160t-127.5 -58q-77 0 -125.5 58t-48.5 160zM926 210q0 -59 21.5 -94.5t55.5 -35.5q35 0 56 35.5
t21 94.5t-21 94.5t-56 35.5q-34 0 -55.5 -35.5t-21.5 -94.5z" />
    <glyph glyph-name="onethird" unicode="&#x2153;" horiz-adv-x="873" 
d="M24 572v89l202 41v-428h-98v324zM599 700h121l-520 -700h-121zM684 -10q-51 0 -87 20.5t-55.5 53.5t-19.5 70h101q0 -31 19.5 -46.5t45.5 -15.5t43 12t17 40q0 26 -21 43t-68 17v65q35 0 56 17t21 40q0 19 -11.5 30t-35.5 11t-39.5 -13.5t-15.5 -36.5h-94q0 56 41 93.5
t108 37.5q71 0 109.5 -33.5t38.5 -82.5q0 -32 -19.5 -55t-52.5 -36q39 -13 61.5 -39t22.5 -67q0 -55 -44 -90t-121 -35z" />
    <glyph glyph-name="twothirds" unicode="&#x2154;" horiz-adv-x="1007" 
d="M30 282l187 194q26 27 40 48t14 46q0 20 -13.5 37t-42.5 17t-47 -21.5t-18 -55.5h-100q0 45 19 82t56.5 59.5t92.5 22.5q52 0 87 -20.5t53 -51.5t18 -64q0 -34 -16.5 -62t-43.5 -51l-98 -87h168v-93h-356zM745 700h121l-520 -700h-121zM818 -10q-51 0 -87 20.5
t-55.5 53.5t-19.5 70h100q0 -31 20 -46.5t46 -15.5t43 12t17 40q0 26 -21.5 43t-68.5 17v65q35 0 56.5 17t21.5 40q0 19 -12 30t-36 11t-39 -13.5t-15 -36.5h-94q0 56 41 93.5t108 37.5q71 0 109 -33.5t38 -82.5q0 -32 -19.5 -55t-52.5 -36q39 -13 61.5 -39t22.5 -67
q0 -55 -43.5 -90t-120.5 -35z" />
    <glyph glyph-name="uni2155" unicode="&#x2155;" horiz-adv-x="862" 
d="M24 572v89l202 41v-428h-98v324zM599 700h121l-520 -700h-121zM663 330l-26 -76q18 9 36.5 12.5t38.5 3.5q33 0 62 -16.5t47.5 -47t18.5 -74.5q0 -49 -25.5 -80.5t-64.5 -46.5t-80 -15q-58 0 -98.5 16t-69.5 38l40 85q26 -21 54.5 -33.5t51.5 -12.5q38 0 59.5 15t21.5 46
t-25 44.5t-56 13.5q-24 0 -55 -5.5t-63 -21.5l58 243h243v-88h-168z" />
    <glyph glyph-name="uni2156" unicode="&#x2156;" horiz-adv-x="1005" 
d="M30 282l187 194q26 27 40 48t14 46q0 20 -13.5 37t-42.5 17t-47 -21.5t-18 -55.5h-100q0 45 19 82t56.5 59.5t92.5 22.5q52 0 87 -20.5t53 -51.5t18 -64q0 -34 -16.5 -62t-43.5 -51l-98 -87h168v-93h-356zM745 700h121l-520 -700h-121zM796 330l-26 -76q18 9 36.5 12.5
t38.5 3.5q33 0 62 -16.5t47.5 -47t18.5 -74.5q0 -49 -25.5 -80.5t-64.5 -46.5t-80 -15q-58 0 -98 16t-69 38l39 85q26 -21 54.5 -33.5t51.5 -12.5q38 0 59.5 15t21.5 46t-25 44.5t-56 13.5q-24 0 -55 -5.5t-63 -21.5l58 243h243v-88h-168z" />
    <glyph glyph-name="uni2157" unicode="&#x2157;" horiz-adv-x="931" 
d="M185 270q-51 0 -87.5 20.5t-56 53.5t-19.5 70h101q0 -31 19.5 -46.5t45.5 -15.5t43.5 12t17.5 40q0 26 -21.5 43t-68.5 17v65q35 0 56.5 17t21.5 40q0 19 -12 30t-36 11t-39.5 -13.5t-15.5 -36.5h-94q0 56 41.5 93.5t108.5 37.5q71 0 109 -33.5t38 -82.5q0 -32 -19.5 -55
t-52.5 -36q39 -13 61.5 -39t22.5 -67q0 -55 -43.5 -90t-120.5 -35zM674 700h121l-520 -700h-121zM718 330l-25 -76q17 9 36 12.5t39 3.5q33 0 62 -16.5t47 -47t18 -74.5q0 -49 -25.5 -80.5t-64 -46.5t-79.5 -15q-58 0 -98.5 16t-69.5 38l39 85q26 -21 54.5 -33.5t51.5 -12.5
q38 0 60 15t22 46t-25.5 44.5t-56.5 13.5q-24 0 -54.5 -5.5t-62.5 -21.5l58 243h243v-88h-169z" />
    <glyph glyph-name="uni2158" unicode="&#x2158;" horiz-adv-x="1016" 
d="M408 355h-66v-75h-106v75h-214l244 345h76v-259h66v-86zM734 699h121l-520 -700h-121zM247 553l-91 -125h91v125zM810 329l-25 -75q17 8 35.5 11.5t38.5 3.5q33 0 62 -16t47.5 -46.5t18.5 -74.5q0 -49 -25.5 -80.5t-64.5 -46.5t-80 -15q-58 0 -98.5 16t-69.5 38l40 84
q26 -21 54.5 -33.5t51.5 -12.5q38 0 59.5 15t21.5 46t-25 44.5t-56 13.5q-24 0 -55 -5t-63 -21l58 242h243v-88h-168z" />
    <glyph glyph-name="uni2159" unicode="&#x2159;" horiz-adv-x="871" 
d="M24 572v89l202 41v-428h-98v324zM618 700h121l-520 -700h-121zM671 416h129l-124 -139q8 3 17.5 4t20.5 1q31 0 61 -16.5t49.5 -47.5t19.5 -73q0 -51 -23 -86t-62 -53t-86 -18t-86 18t-62 53t-23 86q0 34 14 63t34 54zM602 145q0 -32 20.5 -51t50.5 -19t50 19t20 51
t-20 52t-50 20t-50.5 -20t-20.5 -52z" />
    <glyph glyph-name="uni215A" unicode="&#x215a;" horiz-adv-x="931" 
d="M696 700h122l-520 -700h-122zM367 412q0 -49 -25.5 -80.5t-64 -46.5t-79.5 -15q-58 0 -98.5 16t-69.5 38l39 85q26 -21 54.5 -33.5t51.5 -12.5q38 0 60 15t22 46t-25.5 44.5t-56.5 13.5q-24 0 -54.5 -5.5t-62.5 -21.5l58 243h243v-88h-169l-25 -76q17 9 36 12.5t39 3.5
q33 0 62 -16.5t47 -47t18 -74.5zM731 416h129l-124 -138q8 2 17 3t20 1q31 0 61 -16.5t49.5 -47.5t19.5 -73q0 -51 -23 -86t-62 -53t-86 -18t-86 18t-62 53t-23 86q0 34 14.5 63t34.5 54zM661 145q0 -32 20.5 -51t50.5 -19t50 19t20 51t-20 52t-50 20t-50.5 -20t-20.5 -52z
" />
    <glyph glyph-name="oneeighth" unicode="&#x215b;" horiz-adv-x="891" 
d="M24 572v89l202 41v-428h-98v324zM618 700h121l-520 -700h-121zM546 114q0 42 23.5 68.5t55.5 40.5q-27 13 -45.5 37t-18.5 59t19.5 60t52 38t70.5 13q39 0 71.5 -13t52 -38t19.5 -60t-18.5 -59t-46.5 -37q33 -14 56.5 -40.5t23.5 -68.5q0 -38 -22.5 -66t-58.5 -43
t-77 -15t-77 15t-58 43t-22 66zM657 309q0 -22 13 -35t33 -13t33.5 13t13.5 35t-13 35t-34 13t-33.5 -13t-12.5 -35zM648 129q0 -28 16 -42t39 -14t39.5 14t16.5 42q0 23 -16.5 39t-39.5 16t-39 -16t-16 -39z" />
    <glyph glyph-name="threeeighths" unicode="&#x215c;" horiz-adv-x="953" 
d="M185 270q-51 0 -87.5 20.5t-56 53.5t-19.5 70h101q0 -31 19.5 -46.5t45.5 -15.5t43.5 12t17.5 40q0 26 -21.5 43t-68.5 17v65q35 0 56.5 17t21.5 40q0 19 -12 30t-36 11t-39.5 -13.5t-15.5 -36.5h-94q0 56 41.5 93.5t108.5 37.5q71 0 109 -33.5t38 -82.5q0 -32 -19.5 -55
t-52.5 -36q39 -13 61.5 -39t22.5 -67q0 -55 -43.5 -90t-120.5 -35zM680 700h121l-520 -700h-121zM608 114q0 42 23.5 68.5t55.5 40.5q-27 13 -45.5 37t-18.5 59t19.5 60t52 38t70.5 13q39 0 71.5 -13t52 -38t19.5 -60t-18.5 -59t-46.5 -37q33 -14 56.5 -40.5t23.5 -68.5
q0 -38 -22.5 -66t-58.5 -43t-77 -15t-77 15t-58 43t-22 66zM719 309q0 -22 13 -35t33 -13t33.5 13t13.5 35t-13 35t-34 13t-33.5 -13t-12.5 -35zM710 129q0 -28 16 -42t39 -14t39.5 14t16.5 42q0 23 -16.5 39t-39.5 16t-39 -16t-16 -39z" />
    <glyph glyph-name="fiveeighths" unicode="&#x215d;" horiz-adv-x="969" 
d="M696 700h122l-520 -700h-122zM361 412q0 -49 -25.5 -80.5t-64 -46.5t-79.5 -15q-58 0 -98.5 16t-69.5 38l39 85q26 -21 54.5 -33.5t51.5 -12.5q38 0 59.5 15t21.5 46t-25 44.5t-56 13.5q-24 0 -55 -5.5t-63 -21.5l59 243h242v-88h-168l-26 -76q18 9 37 12.5t39 3.5
q33 0 62 -16.5t47 -47t18 -74.5zM624 114q0 42 23.5 68.5t56.5 40.5q-28 13 -46.5 37t-18.5 59t19.5 60t52.5 38t71 13q39 0 71 -13t51.5 -38t19.5 -60t-18.5 -59t-45.5 -37q32 -14 55.5 -40.5t23.5 -68.5q0 -38 -22 -66t-58 -43t-77 -15t-77 15t-58.5 43t-22.5 66zM735 309
q0 -22 13.5 -35t33.5 -13t33 13t13 35t-12.5 35t-33.5 13t-34 -13t-13 -35zM726 129q0 -28 16.5 -42t39.5 -14t39 14t16 42q0 23 -16 39t-39 16t-39.5 -16t-16.5 -39z" />
    <glyph glyph-name="seveneighths" unicode="&#x215e;" horiz-adv-x="859" 
d="M580 700h121l-520 -700h-121zM23 605v95h343l-203 -420h-109l163 325h-194zM514 114q0 42 23.5 68.5t56.5 40.5q-28 13 -46.5 37t-18.5 59t19.5 60t52.5 38t71 13q39 0 71 -13t51.5 -38t19.5 -60t-18.5 -59t-45.5 -37q32 -14 55.5 -40.5t23.5 -68.5q0 -38 -22 -66
t-58 -43t-77 -15t-77 15t-58.5 43t-22.5 66zM625 309q0 -22 13.5 -35t33.5 -13t33 13t13 35t-12.5 35t-33.5 13t-34 -13t-13 -35zM616 129q0 -28 16.5 -42t39.5 -14t39 14t16 42q0 23 -16 39t-39 16t-39.5 -16t-16.5 -39z" />
    <glyph glyph-name="partialdiff" unicode="&#x2202;" horiz-adv-x="615" 
d="M305 -16q-76 0 -135 33.5t-92.5 93t-33.5 135.5q0 68 26.5 119t74 79.5t110.5 28.5q67 0 125 -35q-48 68 -109 129t-138 118l112 76q162 -147 244.5 -276t82.5 -239q0 -75 -35 -134.5t-95 -93.5t-137 -34zM307 116q47 0 77 32.5t30 81.5q0 50 -30 83t-77 33
q-46 0 -76.5 -33t-30.5 -83q0 -49 30 -81.5t77 -32.5z" />
    <glyph glyph-name="emptyset" unicode="&#x2205;" horiz-adv-x="600" 
d="M130 22l-52 53l41 40q-20 27 -30.5 59.5t-10.5 68.5q0 61 30 111t80 80t111 30q36 0 68.5 -11t59.5 -30l40 40l53 -53l-40 -40q19 -27 29.5 -59.5t10.5 -67.5q0 -61 -30 -111t-80 -80t-111 -30q-36 0 -68.5 11t-59.5 30zM178 243q0 -29 13 -55l163 163q-26 13 -55 13
q-33 0 -60.5 -16.5t-44 -44t-16.5 -60.5zM299 121q34 0 61.5 17t44 45t16.5 60q0 29 -13 55l-165 -163q26 -14 56 -14z" />
    <glyph glyph-name="product" unicode="&#x220f;" horiz-adv-x="600" 
d="M128 0v582h-77v118h498v-118h-77v-582h-124v582h-96v-582h-124z" />
    <glyph glyph-name="summation" unicode="&#x2211;" horiz-adv-x="600" 
d="M100 0l170 352l-170 348h400v-124h-196l108 -224l-108 -228h196v-124h-400z" />
    <glyph glyph-name="minus" unicode="&#x2212;" horiz-adv-x="593" 
d="M58 172v131h478v-131h-478z" />
    <glyph glyph-name="uni2215" unicode="&#x2215;" horiz-adv-x="608" 
d="M448 700h146l-427 -850h-152z" />
    <glyph glyph-name="uni2219" unicode="&#x2219;" horiz-adv-x="322" 
d="M67 443q0 38 26.5 65.5t67.5 27.5t68 -27.5t27 -65.5t-27 -65t-68 -27t-67.5 27t-26.5 65z" />
    <glyph glyph-name="radical" unicode="&#x221a;" horiz-adv-x="600" 
d="M245 -196l-124 347l-65 -19l-33 102l157 52l50 -154l123 568h171v-120h-89z" />
    <glyph glyph-name="infinity" unicode="&#x221e;" horiz-adv-x="806" 
d="M209 29q-50 0 -92.5 28t-68.5 73.5t-26 99.5t26 99.5t68.5 73t92.5 27.5q96 0 195 -121q98 121 194 121q50 0 92.5 -27.5t68 -73t25.5 -99.5t-25.5 -99.5t-68 -73.5t-92.5 -28q-49 0 -96.5 30t-97.5 90q-99 -120 -195 -120zM230 144q27 0 54.5 22.5t52.5 63.5
q-53 85 -107 85q-31 0 -55.5 -25.5t-24.5 -59.5t24.5 -60t55.5 -26zM578 144q31 0 54.5 26t23.5 60q0 35 -23.5 60t-54.5 25q-56 0 -109 -85q26 -41 54 -63.5t55 -22.5z" />
    <glyph glyph-name="integral" unicode="&#x222b;" horiz-adv-x="600" 
d="M193 -200q-32 0 -61.5 12.5t-67.5 40.5l59 107q26 -26 45 -26q20 0 33 19t15 51l34 625q5 77 52 122t117 44q32 0 61.5 -11.5t66.5 -40.5l-58 -107q-14 14 -25 19.5t-21 5.5q-20 0 -32.5 -19t-14.5 -51l-35 -625q-4 -76 -50.5 -121.5t-117.5 -44.5z" />
    <glyph glyph-name="approxequal" unicode="&#x2248;" horiz-adv-x="600" 
d="M406 322q-57 0 -130 50q-55 37 -89 37q-27 0 -35.5 -19.5t4.5 -57.5l-119 5q-13 45 4.5 85.5t56.5 66t90 25.5q30 0 61 -11t70 -37q54 -35 77 -35q21 0 27 20.5t-7 52.5l121 -5q12 -47 -3 -87.5t-48.5 -65t-79.5 -24.5zM406 72q-57 0 -130 50q-55 37 -89 37
q-27 0 -35.5 -19.5t4.5 -57.5l-119 5q-13 45 4.5 85.5t56.5 66t90 25.5q30 0 61 -11t70 -37q54 -35 77 -35q21 0 27 20.5t-7 52.5l121 -5q12 -47 -3 -87.5t-48.5 -65t-79.5 -24.5z" />
    <glyph glyph-name="notequal" unicode="&#x2260;" horiz-adv-x="600" 
d="M56 102v132h167l35 75h-202v131h263l51 108l122 -50l-27 -58h106v-131h-168l-35 -75h203v-132h-265l-50 -106l-121 50l26 56h-105z" />
    <glyph glyph-name="lessequal" unicode="&#x2264;" horiz-adv-x="600" 
d="M566 162l-510 214v101l510 214v-149l-295 -112l295 -119v-149zM56 6v130h513v-130h-513z" />
    <glyph glyph-name="greaterequal" unicode="&#x2265;" horiz-adv-x="600" 
d="M65 162v149l294 111l-294 120v149l510 -214v-101zM65 6v130h513v-130h-513z" />
    <glyph glyph-name="lozenge" unicode="&#x25ca;" horiz-adv-x="600" 
d="M306 15l-206 341l206 340l194 -340zM302 241l66 115l-66 114l-70 -114z" />
    <glyph glyph-name="uniFF10" unicode="&#xff10;" horiz-adv-x="630" 
d="M23 350q0 114 36.5 195.5t102 124.5t152.5 43q90 0 155.5 -43t101 -124.5t35.5 -195.5t-35.5 -195t-101 -124.5t-155.5 -43.5q-87 0 -152.5 43.5t-102 124.5t-36.5 195zM186 350q0 -99 35 -158.5t93 -59.5t93 59.5t35 158.5t-35 158.5t-93 59.5t-93 -59.5t-35 -158.5z
" />
    <glyph glyph-name="uniFF11" unicode="&#xff11;" horiz-adv-x="630" 
d="M109 498v147l337 68v-713h-164v540z" />
    <glyph glyph-name="uniFF12" unicode="&#xff12;" horiz-adv-x="630" 
d="M13 0l312 323q42 45 66 80.5t24 76.5q0 34 -22.5 61t-70.5 27q-49 0 -79.5 -35.5t-30.5 -91.5h-165q0 75 32 137t94.5 99t153.5 37q87 0 145.5 -33.5t88 -85.5t29.5 -107q0 -56 -27.5 -102t-73.5 -85l-163 -146h281v-155h-594z" />
    <glyph glyph-name="uniFF13" unicode="&#xff13;" horiz-adv-x="630" 
d="M316 -16q-84 0 -144.5 33.5t-93 88t-32.5 116.5h167q0 -52 33 -77t76 -25q44 0 72 21.5t28 66.5q0 44 -36 71t-113 27v109q59 0 94 28t35 65q0 31 -19.5 50.5t-59.5 19.5q-39 0 -65 -23.5t-26 -59.5h-156q0 63 30.5 112t86 77.5t130.5 28.5q79 0 134 -26t84 -70t29 -98
t-32.5 -92t-88.5 -59q66 -22 103.5 -65.5t37.5 -111.5q0 -61 -32.5 -107.5t-94 -73t-147.5 -26.5z" />
    <glyph glyph-name="uniFF14" unicode="&#xff14;" horiz-adv-x="630" 
d="M610 124h-97v-124h-176v124h-325l375 576h126v-432h97v-144zM356 455l-138 -209h138v209z" />
    <glyph glyph-name="uniFF15" unicode="&#xff15;" horiz-adv-x="630" 
d="M295 553l-42 -126q28 14 59.5 20t65.5 6q56 0 104.5 -27t78.5 -78t30 -124q0 -62 -25 -107t-66 -73.5t-91 -42.5t-101 -14q-97 0 -164 27t-116 64l66 139q42 -36 90 -55.5t87 -19.5q63 0 99 24.5t36 75.5q0 34 -19.5 55.5t-50.5 32t-65 10.5q-40 0 -92 -8.5t-105 -35.5
l97 404h405v-147h-281z" />
    <glyph glyph-name="uniFF16" unicode="&#xff16;" horiz-adv-x="630" 
d="M313 697h214l-208 -233q14 5 29.5 7t34.5 2q53 0 102.5 -27t81.5 -78t32 -122q0 -86 -38.5 -144.5t-103 -88t-143.5 -29.5q-78 0 -142.5 29.5t-103 88t-38.5 144.5q0 57 23.5 105t57.5 90zM197 246q0 -53 33.5 -85.5t83.5 -32.5t84 32.5t34 85.5t-34 86t-84 33t-83.5 -33
t-33.5 -86z" />
    <glyph glyph-name="uniFF17" unicode="&#xff17;" horiz-adv-x="630" 
d="M39 542v158h571l-339 -700h-182l272 542h-322z" />
    <glyph glyph-name="uniFF18" unicode="&#xff18;" horiz-adv-x="630" 
d="M66 190q0 70 38.5 114t92.5 67q-46 22 -76 62t-30 98q0 59 32.5 100.5t86.5 63t118 21.5q65 0 118.5 -21.5t85.5 -63t32 -100.5q0 -58 -30 -98t-75 -62q54 -23 92 -67t38 -114q0 -64 -36.5 -110t-96 -71t-128.5 -25t-128.5 25t-96.5 71t-37 110zM250 515
q0 -35 22.5 -57.5t55.5 -22.5t55 22.5t22 57.5t-21 57t-56 22q-34 0 -56 -22t-22 -57zM234 216q0 -46 28 -70.5t66 -24.5t65.5 24.5t27.5 70.5q0 38 -27.5 64.5t-65.5 26.5t-66 -26.5t-28 -64.5z" />
    <glyph glyph-name="uniFF19" unicode="&#xff19;" horiz-adv-x="630" 
d="M316 3h-214l208 233q-14 -5 -29.5 -7t-34.5 -2q-52 0 -102 27t-82 78t-32 122q0 86 38.5 144.5t103 88t142.5 29.5q79 0 143.5 -29.5t103 -88t38.5 -144.5q0 -57 -23 -105t-58 -90zM432 454q0 53 -34 85.5t-84 32.5t-83.5 -32.5t-33.5 -85.5t33.5 -86t83.5 -33t84 33
t34 86z" />
    <glyph glyph-name="a.alt" horiz-adv-x="616" 
d="M32 230q0 78 31 131.5t81 81t106 27.5q103 0 159 -85v75h150v-460h-150v75q-56 -85 -159 -85q-56 0 -106 27.5t-81 81.5t-31 131zM191 230q0 -54 32.5 -86t77.5 -32q26 0 50.5 14t40.5 40.5t16 63.5q0 38 -16 64t-40.5 40t-50.5 14q-45 0 -77.5 -32t-32.5 -86z" />
    <glyph glyph-name="agrave.alt" horiz-adv-x="616" 
d="M132 681l115 52l150 -160l-85 -42zM32 230q0 78 31 131.5t81 81t106 27.5q103 0 159 -85v75h150v-460h-150v75q-56 -85 -159 -85q-56 0 -106 27.5t-81 81.5t-31 131zM191 230q0 -54 32.5 -86t77.5 -32q26 0 50.5 14t40.5 40.5t16 63.5q0 38 -16 64t-40.5 40t-50.5 14
q-45 0 -77.5 -32t-32.5 -86z" />
    <glyph glyph-name="aacute.alt" horiz-adv-x="616" 
d="M449 681l-180 -150l-85 42l150 160zM32 230q0 78 31 131.5t81 81t106 27.5q103 0 159 -85v75h150v-460h-150v75q-56 -85 -159 -85q-56 0 -106 27.5t-81 81.5t-31 131zM191 230q0 -54 32.5 -86t77.5 -32q26 0 50.5 14t40.5 40.5t16 63.5q0 38 -16 64t-40.5 40t-50.5 14
q-45 0 -77.5 -32t-32.5 -86z" />
    <glyph glyph-name="acircumflex.alt" horiz-adv-x="616" 
d="M314 616l-91 -85l-106 71l197 140l198 -140l-106 -71zM32 230q0 78 31 131.5t81 81t106 27.5q103 0 159 -85v75h150v-460h-150v75q-56 -85 -159 -85q-56 0 -106 27.5t-81 81.5t-31 131zM191 230q0 -54 32.5 -86t77.5 -32q26 0 50.5 14t40.5 40.5t16 63.5q0 38 -16 64
t-40.5 40t-50.5 14q-45 0 -77.5 -32t-32.5 -86z" />
    <glyph glyph-name="atilde.alt" horiz-adv-x="616" 
d="M124 596q8 37 40 66t80 29q25 0 41.5 -8t30 -18t28.5 -18t36 -8q19 0 35 14.5t31 38.5l71 -74q-8 -18 -28 -38t-47.5 -34t-58.5 -14q-27 0 -49.5 13.5t-44 26.5t-46.5 13q-19 0 -29 -9.5t-14 -21.5t-4 -20zM32 230q0 78 31 131.5t81 81t106 27.5q103 0 159 -85v75h150
v-460h-150v75q-56 -85 -159 -85q-56 0 -106 27.5t-81 81.5t-31 131zM191 230q0 -54 32.5 -86t77.5 -32q26 0 50.5 14t40.5 40.5t16 63.5q0 38 -16 64t-40.5 40t-50.5 14q-45 0 -77.5 -32t-32.5 -86z" />
    <glyph glyph-name="adieresis.alt" horiz-adv-x="616" 
d="M342 612q0 36 25.5 59t62.5 23t62.5 -23t25.5 -59t-25.5 -58.5t-62.5 -22.5t-62.5 22.5t-25.5 58.5zM98 612q0 36 25.5 59t62.5 23t62.5 -23t25.5 -59t-25.5 -58.5t-62.5 -22.5t-62.5 22.5t-25.5 58.5zM32 230q0 78 31 131.5t81 81t106 27.5q103 0 159 -85v75h150v-460
h-150v75q-56 -85 -159 -85q-56 0 -106 27.5t-81 81.5t-31 131zM191 230q0 -54 32.5 -86t77.5 -32q26 0 50.5 14t40.5 40.5t16 63.5q0 38 -16 64t-40.5 40t-50.5 14q-45 0 -77.5 -32t-32.5 -86z" />
    <glyph glyph-name="aring.alt" horiz-adv-x="616" 
d="M183 646q0 52 36 84t88 32q53 0 89.5 -32t36.5 -84t-36.5 -83.5t-89.5 -31.5q-52 0 -88 31.5t-36 83.5zM261 646q0 -22 13.5 -34.5t32.5 -12.5t33 12.5t14 34.5q0 23 -14 35.5t-33 12.5t-32.5 -12.5t-13.5 -35.5zM32 230q0 78 31 131.5t81 81t106 27.5q103 0 159 -85v75
h150v-460h-150v75q-56 -85 -159 -85q-56 0 -106 27.5t-81 81.5t-31 131zM191 230q0 -54 32.5 -86t77.5 -32q26 0 50.5 14t40.5 40.5t16 63.5q0 38 -16 64t-40.5 40t-50.5 14q-45 0 -77.5 -32t-32.5 -86z" />
    <glyph glyph-name="amacron.alt" horiz-adv-x="616" 
d="M125 531v131h371v-131h-371zM32 230q0 78 31 131.5t81 81t106 27.5q103 0 159 -85v75h150v-460h-150v75q-56 -85 -159 -85q-56 0 -106 27.5t-81 81.5t-31 131zM191 230q0 -54 32.5 -86t77.5 -32q26 0 50.5 14t40.5 40.5t16 63.5q0 38 -16 64t-40.5 40t-50.5 14
q-45 0 -77.5 -32t-32.5 -86z" />
    <glyph glyph-name="abreve.alt" horiz-adv-x="616" 
d="M136 677h99q0 -26 18 -42.5t47 -16.5t47.5 16.5t18.5 42.5h99q0 -61 -43 -103.5t-122 -42.5t-121.5 42.5t-42.5 103.5zM32 230q0 78 31 131.5t81 81t106 27.5q103 0 159 -85v75h150v-460h-150v75q-56 -85 -159 -85q-56 0 -106 27.5t-81 81.5t-31 131zM191 230
q0 -54 32.5 -86t77.5 -32q26 0 50.5 14t40.5 40.5t16 63.5q0 38 -16 64t-40.5 40t-50.5 14q-45 0 -77.5 -32t-32.5 -86z" />
    <glyph glyph-name="aogonek.alt" horiz-adv-x="616" 
d="M32 230q0 78 31 131.5t81 81t106 27.5q103 0 159 -85v75h150v-460h-31q-39 -21 -59.5 -46t-20.5 -48q0 -37 35 -37q28 0 50 20l33 -69q-11 -15 -34.5 -27.5t-65.5 -12.5q-49 0 -83 25.5t-34 74.5q0 38 27 67.5t66 52.5h-33v75q-56 -85 -159 -85q-56 0 -106 27.5t-81 81.5
t-31 131zM191 230q0 -54 32.5 -86t77.5 -32q26 0 50.5 14t40.5 40.5t16 63.5q0 38 -16 64t-40.5 40t-50.5 14q-45 0 -77.5 -32t-32.5 -86z" />
    </font>
</defs>
</svg>
